Login

  



Los peores comentarios de

Mensaje escrito por OldLobezno el 26/07/2018 02:03:18 pm - Puntaje: -1 
alfaktulu escribió:
OldLobezno escribió:
alfaktulu escribió:
camuspise escribió: Excelente noticia clarko, parece que van a tener un cuidado similar al de la adaptacion de el regreso del caballero oscuro que me parecio bastante fiel a las novelas graficas. PD: no se porque no me dejo dar like, pero dejo algunos votos!!
Supermen????Y este puto quién es??? aprende a escribir puto!
Escuchate hablar nardo con rulos, antes de escribir aprende idioma o te tiraron de una galaxia far far awaymuy muy lejos.Suerte en no vuelvas nunca.
Esperate sentadito clon hijo de mil putas! Ojalá fueras hombre para aforrarte un buen combo en el hocico puto!
Ey analfabestia ilustrada parece que tu tema con los putos es una rutina diaria, no será hora de que salgas a visitar un médico urólogo y te revise el orificio dilatado, no te mando a un neurocirujano porque lo de tu cabeza ya no tiene arreglo. Seguí esperando sentado que en algún momento te pasan a buscar tus amigos los carabineros.

Mensaje escrito por OldLobezno el 30/07/2019 06:22:30 pm - Puntaje: -1 
Fragante escribió:
OldLobezno escribió:
Fragante escribió:
Hasbro2 escribió: Es mas, nadiie critica nada, RELEASE: Avengers Endgame.2019.1080p.WEB-DL.H264.AC3-EVO SOURCE: iTunes ViDEO: 4990 Kbps - Untouched iTunes fileRESOLUTiON: 1920x800RUNTiME: 3h 1m 43s SUBTiTLES: No.AUDiO: 384 Kbps AC3 5.1LANGUAGE: ENGLiSH ENCODER: MUSESPECIAL THANKS TO: DdHD & KING_DVD & HITMAN & SR & Warm & MUSE! NOTES: Enjoy. MedianinfoGeneralUnique ID : 209005609885584032772140127437618257105 0x9D3D0429C5108963990AF1D3AC159CD1Complete name : Avengers Endgame.2019.1080p.WEB-DL.H264.AC3-EVO.mkvFormat : MatroskaFormat version : Version 4 / Version 2File size : 6.23 GiBDuration : 3 h 1 minOverall bit rate : 4 912 kb/sEncoded date : UTC 2019-07-29 13:09:49Writing application : mkvmerge v6.7.0 Back to the Ground 64bit built on Jan 8 2014 15:10:52Writing library : libebml v1.3.0 + libmatroska v1.4.1VideoID : 2Format : AVCFormat/Info : Advanced Video CodecFormat profile : High@L4Format settings : CABAC / 5 Ref FramesFormat settings, CABAC : YesFormat settings, ReFrames : 5 framesCodec ID : V_MPEG4/ISO/AVCDuration : 3 h 1 minBit rate : 4 431 kb/sWidth : 1 920 pixelsHeight : 804 pixelsDisplay aspect ratio : 2.40:1Frame rate mode : ConstantFrame rate : 24.000 FPSColor space : YUVChroma subsampling : 4:2:0Bit depth : 8 bitsScan type : ProgressiveBits/PixelFrame : 0.120Stream size : 5.62 GiB 90%Language : EnglishDefault : YesForced : NoColor range : LimitedColor primaries : BT.709Transfer characteristics : BT.709Matrix coefficients : BT.709AudioID : 1Format : AC-3Format/Info : Audio Coding 3Codec ID : A_AC3Duration : 3 h 1 minBit rate mode : ConstantBit rate : 384 kb/sChannels : 6 channelsChannel positions : Front: L C R, Side: L R, LFESampling rate : 48.0 kHzFrame rate : 31.250 FPS 1536 SPFBit depth : 16 bitsCompression mode : LossyStream size : 499 MiB 8%Language : EnglishService kind : Complete MainDefault : YesForced : NoMenu00:00:00.000 : en:One Last Surprise00:08:05.235 : en:To The Garden00:20:01.034 : en:Five Years Later00:26:14.615 : en:A Time Heist00:36:56.506 : en:Time Travel Do-Over00:43:19.931 : en:I Fixed It00:48:43.503 : en:Assembling The Avengers00:57:36.077 : en:Get The Stones, Get Them Back01:07:11.944 : en:Rogue Transmission01:16:01.847 : en:New York, 201201:26:24.760 : en:Asgard, 201301:32:19.448 : en:Morag, 201401:38:55.134 : en:New Jersey, 197001:48:11.689 : en:Vormir, 201401:57:26.243 : en:I Was Made For This02:04:59.570 : en:Thanos Return02:15:05.759 : en:Avengers Assemble02:25:49.778 : en:One Of The 14,000,60502:34:37.263 : en:Part Of The Journey Is The End02:43:03.226 : en:Clip All The Branches02:49:04.669 : en:End Credits
Hasbro2 escribió: Ya estan diciendo los problemas que tiene, como dicen, espero l oficial
Yo les digo los problemas que tiene y mi crítica...El resumen es que esta película es una mierda, no necesitan ni siquiera verla por que es una completa mierda para nenes con retraso mental. FIN.
Cerra el culo que a nadie le interesa tu puta opinión, para bardo ya lo tenemos al otro infeliz de alfaktulu y su nuevo ladero bien pero bien pegadito al amo ElSenorGalante
No creí que se te fueran a rozar tanto el ano mis comentarios, se ve que te llegaron hasta lo más profundo del ojete sobre todo esa parte en donde te identificas con un retrasado mental con eso de ver este tipo de películas.
[image]http://media.tenor.com/images/9218bd064e39059da861596bb6e1c44e/tenor.gif[/image] Cerra la boca y el culo y seguí camino para otra galaxia ya tenemos demasiados problemas tratando de entender a alfaktulu