Login

  





Los mejores comentarios de laley1990

Mensaje escrito por laley1990 el 20/04/2017 12:11:25 am - Puntaje: 255 
Hola Gente del Foro Los Invito al Thread para ser participe de las Gracias a Nuestra madre misericordiosa que todo nos traduce. Un rubro muy usado pero poco valorado el de ella, Horas de trabajo solo por el simple hecho de Compartir su esfuerzo incondicional. Por favor dejen sus mensajes Sus Gracias, todo eso que quieran decirle los Invito. Y perdón si utilizo este espacio de Películas en Gral pero es aquí, donde mas la requerimos y donde ella quema más sus pestañas. GRACAS Hermosa y marche La Plegaria para Usted Dios te salve, Tamabin, llena eres de gracia, Subdivx es contigo. Bendita eres entre todas las Traductoras y bendito es el fruto de tu traduciones divx. Santa Tama, Madre de Subdivx, Traduce por nosotros Ignorantes ahora y en la hora de nuestra Ignorancia. Amén. [image]https://media.tenor.co/images/16895015a893fbd2402ea5518eddfd2a/tenor.gif[/image] XD: Gracias a Antillan0 y Oraldo, también Grandes motores de todo esto

Mensaje escrito por laley1990 el 01/01/2017 02:26:11 pm - Puntaje: 44 
Seguramente recordaran Planet Earth año 2006, exitosísimo proyecto y muy ambicioso por cierto. ¿Pero que tal Ahora Su Segunda Parte? Tengo que decir que es un deleite total, fotografía como pocas veces he visto en la tv Universal, con una narrativa casi extraído de una Película de acción. Intenso, emotivo, te atrapa al instante. Creo este Post por que me parecía muy importante compartirlo. Ya seguramente millones de ustedes lo vieron, pero realmente son de las cosas que no podemos perder y que merecen su Reconocimiento Les dejo Algunas fotos y un Link con Descarga Directa y Versión Online MicroHD1080p [link]http://gnula.se/capitulos/planet-earth-ii/[/link][anchor_text]Link con todos los Capítulos[/anchor_text] [image]http://www.indiewire.com/wp-content/uploads/2016/11/planet-earth-ii-soundtrack.jpg[/image] [image]https://i.gadgets360cdn.com/large/planet_earth_2_golden_eagle_1479458502109.jpg[/image] [image]https://metrouk2.files.wordpress.com/2016/11/11991956-low_res-planet-earth-ii.jpg?quality=80&
strip=all[/image] [image]https://static.independent.co.uk/s3fs-public/thumbnails/image/2016/12/08/11/planet-earth-2.jp
eg[/image] [image]https://ichef.bbci.co.uk/images/ic/1920x1080/p04hjwb7.jpg[/image] [image]https://www.slrlounge.com/wp-content/uploads/2016/10/planet-earth-2-bbc-nature-wildlife-photo
graphy-5.jpg[/image] [image]https://i.gadgets360cdn.com/large/Planet_Earth_II_BBC_marine_iguanas_1479064372571.jpeg?outpu
t-quality=80&output-format=jpg[/image] [image]https://hips.hearstapps.com/hmg-prod.s3.amazonaws.com/images/planet-earth-trailer-sloth-14762
03907.jpg[/image] [image]http://www.benosbornephotography.co.uk/userfiles/lg_images/Lightmantled-Sooty-Albatross-2.jpg
[/image] [image]https://static.independent.co.uk/s3fs-public/thumbnails/image/2016/10/11/11/planet-earth.jpg[
/image] Planet Earth II (TV) Año 2016 Duración 50 min. País Reino Unido Reino Unido Director Alastair Fothergill, Elizabeth White, Justin Anderson, Ed Charles, Chudden Hunter Música Hans Zimmer, Jasha Klebe, Jacob Shea Fotografía Paul Stewart, Richard Wollocombe Reparto Documentary, David Attenborough Productora Coproducción Reino Unido-Estados Unidos-Alemania-Francia BBC / BBC America / ZDF / France Televisions Género Documental. Serie de TV Naturaleza. Animales. Documental científico. Miniserie de TV. Secuela Grupos Planeta Tierra Sinopsis Miniserie de TV (6 episodios). La segunda parte del mítico documental Planeta Tierra, nos sumerge en increíbles paisajes y nos permite experimentar el mundo a través de la perspectiva de los animales. Viajando a través de junglas, desiertos, montañas, islas, dehesas y ciudades, esta serie documental explora las características de los habitantes más icónicos de la tierra y sus extraordinarios modos de supervivencia. La nueva tecnología nos acerca a detalles sin precedentes en la vida de los animales.

Mensaje escrito por laley1990 el 15/01/2017 06:55:36 am - Puntaje: 39 
Hacksaw Ridge 2016 DVDScr Hacksaw.Ridge.2016.DVDScr.XVID.AC3.HQ [image]http://cdn3-www.comingsoon.net/assets/uploads/gallery/hacksaw-ridge/hacksaw0001.jpg[/image] [link]http://www.subdivx.com/X6XNDg5ODc5X-hacksaw-ridge2016.html[/link][anchor_text]Subtitulos[/anch
or_text] Fences (2016) DVDScr Fences (2016) DVDScreener [image]http://noescinetodoloquereluce.com/wp-content/uploads/2016/11/Fences_cartel_castellano.jpg_cm
yk.jpg[/image] Sin Subtitulo Disponible Patriots Day (2016) DVDScr Patriots.Day.2016.DVDSCREENER-P2P (852.79 MB) [image]http://www.dyncdn.me/posters2/b/bdbaf82f6cfe804ba9b016a366472654e9d43bd5.jpg?c=1[/image]´ Sin Subtitulo Disponible Hidden Figures 2016 DVDScr Hidden Figures 2016 DVDSCR-P2P [image]http://www.blackfilm.com/read/wp-content/uploads/2016/08/Hidden-Figures-poster.jpg[/image] Sin Subtitulo Disponible La La Land 2016 DVDScr La La Land 2016 dvdscr Ac3 HQ Hive-CM8 [image]http://i.imgur.com/nYVvaCb.jpg[/image] [link]http://www.subdivx.com/bajar.php?id=489743&u=8[/link][anchor_text]Subtitulo[/anchor_text] Arrival 2016 DVDScr Arrival.2016.DVDScr.XVID.AC3.HQ.Hive-CM8 [image]http://cdn.traileraddict.com/content/paramount-pictures/arrival-2016-poster-7.jpg[/image] [link]http://www.subdivx.com/bajar.php?id=489698&u=8[/link][anchor_text]Subtitulo[/anchor_text] Moonlight 2016 DVDScr Moonlight.2016.Dvdscr.XVID.AC3.HQ.Hive-CM8 [image]http://pics.filmaffinity.com/moonlight-232276883-large.jpg[/image] [link]http://www.subdivx.com/bajar.php?id=489763&u=8[/link][anchor_text]Subtitulo[/anchor_text] Doctor Strange (2016) DVDScr Doctor Strange 2016 DVDScr XVID AC3 HQ Hive-CM8 [image]http://pics.filmaffinity.com/doctor_strange-883697036-large.jpg[/image] [link]http://www.subdivx.com/X6XNDkwNTcz[/link][anchor_text]Subtitulo[/anchor_text] Moana (2016) DVDScr Moana.2016.DVDScr.XVID.AC3.HQ.Hive-CM8 [image]https://i.imgur.com/DUeCcBP.jpg[/image] [link]http://www.subdivx.com/X6XNDkwNTEy[/link][anchor_text]Subtitulo[/anchor_text] Jackie (2016) DVDScr Jackie.2016.DVDScr.XVID.AC3.HQ.Hive.CM8 [image]https://i.imgur.com/1m6X7L5.jpg[/image] [link]http://www.subdivx.com/bajar.php?id=490704&u=8[/link][anchor_text]Subtitulo[/anchor_text] Silence (2016) DVDScr Silence 2016 DVDScr XVID AC3 HQ Hive-CM8 [image]http://pics.filmaffinity.com/silence-956498036-large.jpg[/image] [link]http://www.subdivx.com/bajar.php?id=490545&u=8[/link][anchor_text]Subtitulo[/anchor_text] A Monster Calls (2016) DVDScr A Monster Calls 2016 DVDScr XVID AC3 HQ Hive-CM8 [image]http://pics.filmaffinity.com/un_monstruo_viene_a_verme_a_monster_calls-108553414-large.jpg[/i
mage] [link]http://www.subdivx.com/X6XNDkwMzQ0X-a-monster-calls2016.html[/link][anchor_text]Subtitulo[/anc
hor_text] Manchester by the Sea (2016) DVDScr Manchester.by.the.Sea.2016.DVDScr.XVID.AC3.HQ.Hive-CM8 [image]https://i.imgur.com/zmGkOz5.jpg[/image] Sin Subtitulo Disponible Allied (2016) DVDScr Allied.2016.DVDScr.XVID.AC3.HQ.Hive-CM8 [image]http://i.imgur.com/kNDivTv.jpg[/image] [link]http://www.subdivx.com/bajar.php?id=490826&u=8[/link][anchor_text]Subtitulo[/anchor_text] Live by Night (2016) DVDScr Live by Night 2016 DVDScr XVID AC3 HQ Hive-CM8 [image]http://pics.filmaffinity.com/live_by_night-226956696-large.jpg[/image] Sin Subtitulo Disponible

Mensaje escrito por laley1990 el 12/09/2017 07:50:48 am - Puntaje: 32 
Releases Baby.Driver.2017.1080p.WEB-DL.DD5.1.H264-FGT [image]https://i0.wp.com/media2.slashfilm.com/slashfilm/wp/wp-content/images/baby-driver-poster.jpg[
/image] Video ID                                       : 1 Format                                   : AVC Format/Info                              : Advanced Video Codec Format profile                           : High@L4 Format settings, CABAC                   : Yes Format settings, ReFrames                : 5 frames Codec ID                                 : V_MPEG4/ISO/AVC Duration                                 : 1 h 52 min Bit rate                                 : 4 430 kb/s Width                                    : 1 920 pixels Height                                   : 804 pixels Display aspect ratio                     : 2.40:1 Frame rate mode                          : Constant Frame rate                               : 23.976 (24000/1001) FPS Color space                              : YUV Chroma subsampling                       : 4:2:0 Bit depth                                : 8 bits Scan type                                : Progressive Bits/(PixelFrame)                       : 0.120 Stream size                              : 3.49 GiB (90%) Title                                    : Baby.Driver.2017.1080p.WEB-DL.DD5.1.H264-FGT Language                                 : English Default                                  : Yes Forced                                   : No Color range                              : Limited Color primaries                          : BT.709 Transfer characteristics                 : BT.709 Matrix coefficients                      : BT.709 Audio ID                                       : 2 Format                                   : AC-3 Format/Info                              : Audio Coding 3 Format settings, Endianness              : Big Codec ID                                 : A_AC3 Duration                                 : 1 h 52 min Bit rate mode                            : Constant Bit rate                                 : 384 kb/s Channel(s)                               : 6 channels Sinopsis Baby (Ansel Elgort), un joven y talentoso conductor especializado en fugas, depende del ritmo de su banda sonora personal para ser el mejor en lo suyo. Cuando conoce a la chica de sus sueños (Lily James), Baby ve una oportunidad de abandonar su vida criminal y realizar una huida limpia. Pero después de ser forzado a trabajar para un jefe de una banda criminal (Kevin Spacey), deberá dar la cara cuando un golpe malogrado amenaza su vida, su amor y su libertad.

Mensaje escrito por laley1990 el 12/01/2017 09:50:12 am - Puntaje: 31 
Dios te salve, Tamabin, llena eres de gracia, Subdivx es contigo. Bendita eres entre todas las Traductoras y bendito es el fruto de tu traduciones divx. Santa Tama, Madre de Subdivx, Traduce por nosotros Ignorantes ahora y en la hora de nuestra Ignorancia. Amén.

Mensaje escrito por laley1990 el 17/01/2017 05:24:19 am - Puntaje: 30 
Releases Hacksaw.Ridge.2016.DVDScr.XVID.AC3.HQ. Video: 720x304 @bitrate 1600 2pass Audio: English AC3 Stereo Sample: yes included http://www.imdb.com/title/tt2119532/ [image]http://cdn3-www.comingsoon.net/assets/uploads/gallery/hacksaw-ridge/hacksaw0001.jpg[/image]

Mensaje escrito por laley1990 el 14/01/2017 05:46:48 pm - Puntaje: 29 
Releases La La Land 2016 dvdscr Ac3 HQ Hive-CM8 Poster [image]http://i.imgur.com/nYVvaCb.jpg[/image] [youtube]0pdqf4P9MB8[/youtube] Datos Comedy, Drama, Musical Ratings: 8.8 / 10 Votes: 44,547 People Directed by Damien Chazelle. With Ryan Gosling, Emma Stone, Rosemarie DeWitt, J.K. Simmons. A jazz pianist falls for an aspiring actress in Los Angeles. Actors: Ryan Gosling, Emma Stone, Rosemarie DeWitt La.La.Land.2016.DVDScr.XVID.AC3.HQ.Hive-CM8.avi Format : AVI Format/Info : Audio Video Interleave File size : 1.63 GiB Duration : 2h 7mn Overall bit rate : 1 825 Kbps Width : 720 pixels Height : 288 pixels Writing application : Nandub v1.0rc2 Writing library : Nandub build 1853/release

Mensaje escrito por laley1990 el 02/03/2017 05:58:21 pm - Puntaje: 28 
Bienvenidos. Habiendo Pasado el [link]http://www.subdivx.com/X12X5X219636X0X0X1X-89-edicion-de-los-oscar-2017.html[/link][anchor_tex
t]OSCAR[/anchor_text], [link]http://www.subdivx.com/X12X5X218172X0X0X1X-los-globos-de-oro-ganadores-de-la-74-edicion.html[/
link][anchor_text]GLOBOS DE ORO[/anchor_text] y Otros vamos a hacer, o los invito a hacer nuestros PREMIOS SUBDIVX 1ª Edición. Por el Momento nos Limitaremos a premios a Mejor Película Mejor Actor Mejor Actriz Y Director si el foro da para mas discusión, seguimos con otros Rubros... Se que la gran Mayoria (Como es costumbre) no han quedado satisfecho con la premiación, entonces llego la Hora. Un Simple consuelo para Muchos (Aunque a mi me gusto bastante la premiación) Importante: Las Nominaciones serán las Mismas del OSCAR. Caso contrario si vemos que hay algún CANDIDATO, que tiene mucha aprobación, lo adjuntamos a su lista correspondiente. Mejor Película 1º Arrival La La Land Manchester by the Sea Nocturnal Animals Moonlight Hacksaw Ridge Fences Hell or High Water Hidden Figures Lion Mejor Dirección 1º Denis Villeneuve por La llegada Kenneth Lonergan por Manchester frente al mar Mel Gibson por Hasta el último hombre Damien Chazelle por La La Land Barry Jenkins por Moonlight Mejor Actriz 1º Emma Stone por La La Land Natalie Portman por Jackie Meryl Streep por Florence Foster Jenkins Isabelle Huppert por Elle Ruth Negga por Loving Mejor Actor 1º Viggo Mortensen por Captain Fantastic Casey Affleck por Manchester frente al mar Denzel Washington por Fences Andrew Garfield por Hasta el último hombre Ryan Gosling por La La Land Voy Moviendo posiciones dependiendo los Votos [image]https://img2.brain3.photobox.com/115846569b0b1b7b7934a32b4e9d0271b87d5787ef64b7d6490a862f0e82
511152ec053f.jpg[/image] [image]https://img2.brain3.photobox.com/732743018ea48d1440c157693e4c8579ea9ad7771d9dc0eff44da9f7e0f0
f7e6e6b42391.jpg[/image] ´´Gracias por Este Premio Subdivx, en especial a vos que me votaste en el Thread. Sin vos no lo hubiese logrado, estoy muy Feliz´´ Palabras de Denis..

Mensaje escrito por laley1990 el 01/11/2017 07:36:34 am - Puntaje: 22 
Release Valerian.and.the.City.of.a.Thousand.Planets.2017.KORSUB.HDRip.x264-STUTTERSHIT Poster [image]http://www.impawards.com/intl/france/2017/posters/valerian_and_the_city_of_a_thousand_planets
_ver2_xlg.jpg[/image] [Datos Video ID                                       : 1 Format                                   : AVC Format/Info                              : Advanced Video Codec Format profile                           : High@L3.1 Format settings, CABAC                   : Yes Format settings, ReFrames                : 5 frames Codec ID                                 : avc1 Codec ID/Info                            : Advanced Video Coding Duration                                 : 2 h 16 min Bit rate                                 : 1 100 kb/s Width                                    : 720 pixels Height                                   : 304 pixels Display aspect ratio                     : 2.40:1 Original display aspect ratio            : 2.40:1 Frame rate mode                          : Constant Frame rate                               : 23.976 (24000/1001) FPS Color space                              : YUV Chroma subsampling                       : 4:2:0 Bit depth                                : 8 bits Scan type                                : Progressive Bits/(PixelFrame)                       : 0.210 Stream size                              : 1.04 GiB (89%) Title                                    : Valerian.and.the.City.of.a.Thousand.Planets.2017.KORSUB.HDRip.x264-STUTTERSHIT Trailer [youtube]NNrK7xVG3PM[/youtube]

Mensaje escrito por laley1990 el 30/01/2017 06:22:04 pm - Puntaje: 20 
Buenas Comunidad, ando Recopilando Lo Mejor de los Últimos 10 Años me he obsesionado con varios Títulos que les Comparto y me Gustaría que comenten cuales son sus favoritas o si comparten MI TOP. XD Soy un amante del Cine DRAMA No Country for Old Men [image]https://aswedetalksmovies.files.wordpress.com/2012/04/no-country-for-old-men.jpg[/image] [link]http://www.imdb.com/title/tt0477348/[/link][anchor_text]IMDb[/anchor_text] Slumdog Millionaire [image]https://s-media-cache-ak0.pinimg.com/originals/b8/6c/82/b86c82adfccb6b7ff8d96cab02f10610.jpg[
/image] [link]http://www.imdb.com/title/tt1010048/[/link][anchor_text]IMDb[/anchor_text] The Hurt Locker [image]http://resizing.flixster.com/4tBei4Fh-ekkWDDZGicFWMIPKac=/800x1200/v1.bTsxMTE3NTc3MztqOzE3Mjk
3OzIwNDg7ODAwOzEyMDA[/image] [link]www.imdb.com/title/tt0887912[/link][anchor_text]IMDb[/anchor_text] The Kings Speech [image]http://www.filmofilia.com/wp-content/uploads/2011/01/the_kings_speech_poster_06.jpg[/image] [link]www.imdb.com/title/tt1504320[/link][anchor_text]IMDb[/anchor_text] The Artist [image]http://4.bp.blogspot.com/-MzyBEMW2L8Q/VU9yJgG4HvI/AAAAAAAAC0Q/4Pi-rxzk_us/s1600/the-artist-20
11-a21.jpg[/image] [link]www.imdb.com/title/tt1655442[/link][anchor_text]IMDb[/anchor_text] Argo [image]http://pics.filmaffinity.com/argo-756723442-large.jpg[/image] [link]www.filmaffinity.com/ar/film917469.html[/link][anchor_text]IMDb[/anchor_text] Django Unchained [image]http://pics.filmaffinity.com/django_unchained-956246347-large.jpg[/image] [link]www.imdb.com/title/tt1853728/[/link][anchor_text]IMDb[/anchor_text] The Help [image]http://cdn.playbuzz.com/cdn/28ab26b4-3917-4925-8dad-b635f1626a26/b8aeb9dc-b591-4284-89ca-54ea
1c3b2965.jpg[/image] [link]www.imdb.com/title/tt1454029/[/link][anchor_text]IMDb[/anchor_text] War Horse [image]http://pics.filmaffinity.com/war_horse-925261133-large.jpg[/image] [link]www.imdb.com/title/tt1568911[/link][anchor_text]IMDb[/anchor_text] The Descendants [image]http://www.impawards.com/2011/posters/descendants_ver3_xlg.jpg[/image] [link]www.imdb.com/title/tt1033575[/link][anchor_text]IMDb[/anchor_text] 12 Years a Slave [image]http://expatspost.com/wp-content/uploads/1-12-years-a-slave-poster.jpg[/image] [link]www.imdb.com/title/tt2024544/[/link][anchor_text]IMDb[/anchor_text] The Wolf of Wall Street [image]http://esunatrampa.com/wp-content/uploads/2015/11/The-Wolf-of-Wall-St..jpg[/image] [link]www.imdb.com/title/tt0993846/[/link][anchor_text]IMDb[/anchor_text] Dallas Buyers Club [image]http://es.web.img3.acsta.net/pictures/210/623/21062333_20131129173024273.jpg[/image] [link]www.imdb.com/title/tt0790636/[/link][anchor_text]IMDb[/anchor_text] Her [image]https://artenmalee.files.wordpress.com/2015/07/her-2013-10.jpg[/image] [link]www.imdb.com/title/tt1798709/[/link][anchor_text]IMDb[/anchor_text] ACÁ MI PELÍCULA FAVORITA BIRDMAN [image]http://images.filmfestival.be/image/filmfest/900-0/14-1069_poster.jpg[/image] [link]www.imdb.com/title/tt2562232[/link][anchor_text]IMDb[/anchor_text] Whiplash [image]http://vagabundos.mx/wp-content/uploads/2015/02/Whiplash-Movie1.jpg[/image] [link]www.imdb.com/title/tt2582802/[/link][anchor_text]IMDb[/anchor_text] The Grand Budapest Hotel OTRA FAVORITA [image]http://pics.filmaffinity.com/the_grand_budapest_hotel-247331769-large.jpg[/image] [link]www.imdb.com/title/tt2278388/[/link][anchor_text]IMDb[/anchor_text] Boyhood [image]http://pics.filmaffinity.com/boyhood-954973569-large.jpg[/image] [link]www.imdb.com/title/tt1065073/[/link][anchor_text]IMDb[/anchor_text] Room [image]https://kalafudra.files.wordpress.com/2016/05/room.jpg[/image] [link]www.imdb.com/title/tt3170832[/link][anchor_text]IMDb[/anchor_text] The Revenant [image]http://pics.filmaffinity.com/the_revenant-498846647-large.jpg[/image] [link]www.imdb.com/title/tt1663202/[/link][anchor_text]IMDb[/anchor_text] Hell or High Water [image]http://mlcinemas.com/wp-content/uploads/Hell_or_High_Water_One_Sheet_2.jpg[/image] [link]www.imdb.com/title/tt2582782/[/link][anchor_text]IMDb[/anchor_text] Manchester by the Sea Hasta Ahora lo Mejor [image]http://pics.filmaffinity.com/manchester_by_the_sea-889918647-large.jpg[/image] [link]www.imdb.com/title/tt4034228/[/link][anchor_text]IMDb[/anchor_text] Bueno esto Fue todo, espero sus Comentarios y Sugerencias ¡SALUDOS! XD: Aguante Iñárritu!

Mensaje escrito por laley1990 el 15/02/2017 01:43:24 pm - Puntaje: 17 
Comparto esta Serie con el Foro, ya que me pareció Excepcional desde todo Punto de vista. Luego de ver [link]http://www.subdivx.com/X12X69X217934X0X0X1X-alguien-ve-planet-earth-ii-una-maravilla.html[/lin
k][anchor_text]Planet Earth[/anchor_text] (Obra de Arte) me puse en campaña de Buscar algo Similar, me refiero en Calidad y Producción. En varios foros Aconsejaban la serie. Basto solo con ver a Dios encarnado (Lo digo por que es un Clásico ver a Morgan personificando a Dios) en ese Poster. Me puse a verla, basto una noche. Sorprendente Recomendable 100% Dejo los Capítulos por YOUTUBE. Se ven relativamente bien para ser un Online. La mayoria permiten un 720p. OJALA la Disfruten Tanto o mas que Yo. Saludos Comunidad. Cap 01 [youtube]3qba5zJ3NpY[/youtube] Cap 02 [youtube]30swDD7hurg[/youtube] Cap 03 [youtube]SsAWmG6gRKs[/youtube] Cap 04 [youtube]ginD3nfEGwk[/youtube] Cap 05 [youtube]o5w_nljQCWY[/youtube] Cap 06 [youtube]cxEzqa_T1Vw[/youtube]

Mensaje escrito por laley1990 el 14/01/2017 05:52:44 pm - Puntaje: 16 
Dios te salve, Tamabin, llena eres de gracia, Subdivx es contigo. Bendita eres entre todas las Traductoras y bendito es el fruto de tu traduciones divx. Santa Tama, Madre de Subdivx, Traduce por nosotros Ignorantes ahora y en la hora de nuestra Ignorancia. Amén.

Mensaje escrito por laley1990 el 30/01/2017 03:53:43 pm - Puntaje: 16 
Releases Paterson.2016.DVDScr.XVID.AC3.HQ.Hive-CM8 Poster [image]https://4.bp.blogspot.com/-pNv7dkr3oB0/WEff-CjtL6I/AAAAAAAAT2o/XYQV7zBeZQM_TE1o4iCPp_ymM2g2bs
txQCLcB/s1600/poster_paterson.jpg[/image] [image]http://imagecurl.com/images/20640413262041662879_thumb.jpg[/image] Datos Video ID : 0 Format : MPEG-4 Visual Format profile : Advanced Simple@L5 Format settings, BVOP : 2 Format settings, QPel : Yes Format settings, GMC : No warppoints Format settings, Matrix : Default (H.263) Muxing mode : Packed bitstream Codec ID : XVID Codec ID/Hint : XviD Duration : 1h 57mn Bit rate : 1 637 Kbps Width : 720 pixels Height : 400 pixels Display aspect ratio : 16:9 Frame rate : 29.970 fps Color space : YUV Chroma subsampling : 4:2:0 Bit depth : 8 bits Scan type : Progressive Compression mode : Lossy Bits/(PixelFrame) : 0.190 Stream size : 1.35 GiB (86%) Writing library : XviD 1.2.1 (UTC 2008-12-04) Audio ID : 1 Format : AC-3 Format/Info : Audio Coding 3 Mode extension : CM (complete main) Format settings, Endianness : Big Codec ID : 2000 Duration : 1h 57mn Bit rate mode : Constant Bit rate : 256 Kbps Channel(s) : 2 channels Channel positions : Front: L R Sampling rate : 48.0 KHz Bit depth : 16 bits Compression mode : Lossy Delay relative to video : 24ms Stream size : 216 MiB (13%) Alignment : Split accross interleaves Interleave, duration : 33 ms (1.00 video frame) Interleave, preload duration : 500 ms Paterson Año 2016 Duración 113 min. País Estados Unidos Estados Unidos Director Jim Jarmusch Guión Jim Jarmusch Fotografía Frederick Elmes Reparto Adam Driver, Golshifteh Farahani, Kara Hayward, Sterling Jerins, Luis Da Silva Jr., Frank Harts, William Jackson Harper, Jorge Vega, Trevor Parham, Masatoshi Nagase, Owen Asztalos, Jaden Michael, Chasten Harmon, Brian McCarthy Productora Amazon Studios / Animal Kingdom / K5 Film Género Drama Cine independiente USA Sinopsis Historia sobre un conductor de autobús y poeta aficionado sobre las pequeñas cosas llamado Paterson, que vive en Paterson, New Jersey. [link]http://www.imdb.com/title/tt5247022/[/link][anchor_text]IMDb[/anchor_text]

Mensaje escrito por laley1990 el 01/12/2016 04:34:05 pm - Puntaje: 15 
Poster [image]http://gnula.nu/wp-content/uploads/2016/11/Al_final_del_tunel_poster_argentina.jpg[/image] Al final del túnel m1080p Trailer [youtube]r1381MJ6J58[/youtube] Datos Título original Al final del túnel Año 2016 Duración 120 min. País Argentina Argentina Director Rodrigo Grande Guión Rodrigo Grande Música Lucio Godoy, Federico Jusid Fotografía Félix Monti Reparto Leonardo Sbaraglia, Clara Lago, Pablo Echarri, Federico Luppi, Javier Godino, Walter Donado, Uma Salduende, Daniel Morales Comini, Laura Faienza, Sergio Ferreiro, Facundo Nahuel Giménez, Ariel Nuñez Di Croce, Cristóbal Pinto Sinopsis Joaquín está en silla de ruedas. Su casa, que conoció tiempos mejores, ahora es lúgubre y oscura. Berta, bailarina de striptease, y su hija Betty, llaman a su puerta respondiendo a un anuncio que puso Joaquín para alquilar una habitación. Su presencia alegra la casa y anima la vida de Joaquín. Una noche, mientras trabaja en su sótano, Joaquín escucha un ruido casi imperceptible. Se da cuenta entonces que una banda de delincuentes está construyendo un túnel que pasa bajo su casa con la intención de robar un banco cercano.

Mensaje escrito por laley1990 el 15/01/2017 06:33:04 am - Puntaje: 15 
Releases Moonlight.2016.Dvdscr.XVID.AC3.HQ.Hive-CM8 Poster [image]https://dyncdn.me/posters2/3/346a8f6297d0591c58038cbd21c8250a90f2b3a3.jpg?c=1[/image] [image]http://imagecurl.com/images/10631409878968584046_thumb.jpg[/image] Trailer [youtube]9NJj12tJzqc[/youtube] Datos Video: 720x304 @bitrate 1600 2pass Audio: English AC3 5.1 Sample: yes included [link]http://imdb.com/title/tt4975722/[/link][anchor_text]IMDb[/anchor_text]

Mensaje escrito por laley1990 el 01/03/2017 01:55:04 pm - Puntaje: 15 
Agregado a [link]http://www.subdivx.com/X12X15X219607X0X0X1X-ultimos-estrenos-marzo.html[/link][anchor_text] Últimos Estrenos - Marzo[/anchor_text]. Saludos.

Mensaje escrito por laley1990 el 23/12/2016 06:01:27 pm - Puntaje: 13 
Releases The.Accountant.2016.720p.BluRay.x264-SPARKS The.Accountant.2016.BRRip.XviD.AC3-RARBG Release.Date: 23.12.2016 Video.......: X264 4606Kbps Frame.Rate..: 23.976 Resolution..: 1280x536 Audio.......: DTS 1509Kbps 6ch Language....: English Length......: 2h 7mn Source......: Retail BluRay Size........: 5595MB Subtitles...: English Poster [image]https://dyncdn.me/posters2/e/e53d0cae1724fdecdb1232e22981a0dac8deac57.jpg?c=2[/image] Capturas [image]http://imagecurl.com/images/10676397810501365289_thumb.jpg[/image] Trailer [youtube]DBfsgcswlYQ[/youtube] Datos Título original The Accountant Año 2016 Duración 128 min. País Estados Unidos Estados Unidos Director Gavin OConnor Guión Bill Dubuque Música Mark Isham Fotografía Seamus McGarvey Reparto Ben Affleck, Anna Kendrick, J.K. Simmons, Jon Bernthal, John Lithgow, Jeffrey Tambor, Cynthia Addai-Robinson, Fernando Chien, Seth Lee, Michael Beasley, David Anthony Buglione, Jason MacDonald, Ron Prather, Alex Collins, Johnny Giacalone, Nick Arapoglou Productora WB / Electric City Entertainment / Zero Gravity Management Género Thriller. Drama Crimen Sinopsis Christian Wolff (Ben Affleck) es un contable y genio matemático, un hombre extremadamente tranquilo, obsesivo con el orden y con mucha más afinidad con los números que con las personas, que lleva una doble vida como asesino despiadado. [link]http://www.imdb.com/title/tt2140479/[/link][anchor_text]Imdb[/anchor_text]

Mensaje escrito por laley1990 el 08/12/2016 02:43:20 pm - Puntaje: 12 
Release The Light Between Oceans 2016 720p WEB-DL H264 AC3-EVO The Light Between Oceans 2016 1080p WEB-DL H264 AC3-EVO Poster [image]http://i.imgur.com/9bxu1Ix.jpg[/image] Capturas [image]http://i.imgur.com/q873dHe.png[/image] [image]http://i.imgur.com/33NrvGz.png[/image] [image]http://i.imgur.com/v9brUHT.png[/image] Trailer [youtube]lk7yw00a4fs[/youtube] Tecnico RELEASE: The.Light.Between.Oceans.2016.720p.WEB-DL.H264.AC3-EVO SOURCE: iTunes ViDEO: 3990 Kbps - Untouched iTunes file RESOLUTiON: 1280x690 RUNTiME: 2h 12m 43s SUBTiTLES: No. AUDiO: 384 Kbps AC3 5.1 LANGUAGE: ENGLiSH Datos The Light Between Oceans Año 2016 Duración 130 min. País Estados Unidos Estados Unidos Director Derek Cianfrance Guión Derek Cianfrance (Novela: M.L. Stedman) Música Alexandre Desplat Fotografía Adam Arkapaw Reparto Michael Fassbender, Alicia Vikander, Rachel Weisz, Anthony Hayes, Caren Pistorius, Leon Ford, Benedict Hardie, Florence Clery Productora Coproducción EEUU-Reino Unido-Nueva Zelanda DreamWorks SKG / Heyday Films / Participant Media Género Drama Drama de época. Melodrama. Años 20 [link]http://www.imdb.com/title/tt2547584/[/link][anchor_text]Imdb[/anchor_text] Sinopsis Australia, 1926. Un bote encalla en una isla remota y a su encuentro acuden el farero Tom Sherbourne y su joven esposa Isabel. En el interior del bote yacen un hombre muerto y un bebé que llora con desesperación. Tom e Isabel adoptan al niño y deciden criarlo sin informar a las autoridades. Todo se complica cuando descubren que la madre biológica del bebé está viva.

Mensaje escrito por laley1990 el 10/02/2017 04:04:07 pm - Puntaje: 12 
rELEASES Doctor Strange 2016 HDRip XviD AC3-EVO [image]https://i.imgur.com/kNy5y6s.jpg[/image] Datos RELEASE: Doctor.Strange.2016.HDRip.XviD.AC3-EVO SOURCE: VOD - Thanks friend! ViDEO: 1600 kbps XviD -2 Passes RESOLUTiON: 720x304 RUNTiME: 1h51m33sec (25 fps) SUBTiTLES: No. AUDiO: 192 CBR AC-3 2.0 LANGUAGE: ENGLiSH GREETS: Srkfan & AQOS NOTES: Complete. No cuts. No subtitles. Enjoy. EXTRA NOTES: The reason why the length of the movie is at 1h51, instead of the 1h55m happens because of the framerate being at 25 fps. The movie is complete. [image]https://i.imgur.com/Ums1JQ9.png[/image] [image]https://i.imgur.com/8NbDy6w.png[/image]´ [image]https://i.imgur.com/duinqEK.png[/image] [youtube]kNdM7b1Lm04[/youtube]

Mensaje escrito por laley1990 el 19/02/2017 08:57:26 am - Puntaje: 12 
Assassins.Creed.2016.KORSUB.HDRip.XviD.MP3 Assassins.Creed.2016.1080p.KORSUB.HDRip.x264.AAC2.0 [image]https://dyncdn.me/posters2/1/173ef799644e74df1e83cb5982c80c3b142dd69b.jpg[/image] [image]http://imagecurl.com/images/79445101942182422083_thumb.png[/image] [image]http://imagecurl.com/images/33018028668144674275_thumb.png[/image] [image]http://imagecurl.com/images/07448764380937942326_thumb.png[/image] Assassins Creed Año 2016 Duración 115 min. País Estados Unidos Estados Unidos Director Justin Kurzel Guion Adam Cooper, Bill Collage, Michael Lesslie (Videojuego: Patrick Désilets, Corey May, Jade Raymond) Música Jed Kurzel Fotografía Adam Arkapaw Reparto Michael Fassbender, Marion Cotillard, Jeremy Irons, Charlotte Rampling, Brendan Gleeson, Michael Kenneth Williams, Ariane Labed, Brian Gleeson, Carlos Bardem, Hovik Keuchkerian, Javier Gutiérrez, Matías Varela, Denis Ménochet, Mohammed Ali, Dino Fazzani, Gabriel Andreu, Megan Affonso Productora 20th Century Fox / Regency Enterprises / DMC Film / Ubisoft Género Aventuras. Acción. Ciencia ficción Viajes en el tiempo. Siglo XV. Videojuego Grupos Assassins Creed Ubisoft Novedad Sinopsis Gracias a una tecnología revolucionaria que permite el acceso a los recuerdos genéticos, Callum Lynch (Michael Fassbender) revive las aventuras de Aguilar, un antepasado suyo que vivió en la España del siglo XV. Así descubre que es descendiente de una misteriosa organización secreta, los Assassins, y que posee las habilidades y los conocimientos necesarios para enfrentarse a la poderosa y temible organización de los Templarios en la época actual. Adaptación libre del videojuego homónimo.