Login

  







Los mejores comentarios de GrosoyGroso

Mensaje escrito por GrosoyGroso el 14/04/2019 07:44:45 pm - Puntaje: 13 
Baja Calidad https://t.co/IwkjV0pmFM Media calidad https://t.co/TTCUPv7Bgw 720p https://t.co/1obolpr34N 1080p https://t.co/UTVqbKyjVO

Mensaje escrito por GrosoyGroso el 22/01/2019 02:06:05 pm - Puntaje: 10 
[image]http://images2.imgbox.com/9e/d0/y1OIkpjZ_o.jpg[/image] [image]http://images2.imgbox.com/86/0f/NVadmaAM_o.png[/image] [youtube]piFZz71YFAk[/youtube] Video ID : 1 Format : AVC Format/Info : Advanced Video Codec Format profile : High@L4.1 Format settings : CABAC / 4 Ref Frames Format settings, CABAC : Yes Format settings, ReFrames : 4 frames Codec ID : V_MPEG4/ISO/AVC Duration : 2 h 7 min Bit rate : 3 820 kb/s Width : 1 920 pixels Height : 1 080 pixels Display aspect ratio : 16:9 Frame rate mode : Constant Frame rate : 23.976 (24000/1001) FPS Color space : YUV Chroma subsampling : 4:2:0 Bit depth : 8 bits Scan type : Progressive Bits/(PixelFrame) : 0.077 Stream size : 3.34 GiB (94%) Title : Mortal.Engines.2018.1080p.KORSUB.HDRip.x264.AAC2.0-STUTTERSHIT Writing library : x264 core 142 r2479 dd79a61 Encoding settings : cabac=1 / ref=1 / deblock=1:0:0 / analyse=0x3:0x113 / me=hex / subme=2 / psy=1 / psy_rd=1.00:0.00 / mixed_ref=0 / me_range=16 / chroma_me=1 / trellis=0 / 8x8dct=1 / cqm=0 / deadzone=21,11 / fast_pskip=1 / chroma_qp_offset=0 / threads=18 / lookahead_threads=6 / sliced_threads=0 / nr=0 / decimate=1 / interlaced=0 / bluray_compat=0 / constrained_intra=0 / bframes=3 / b_pyramid=2 / b_adapt=1 / b_bias=0 / direct=1 / weightb=1 / open_gop=0 / weightp=1 / keyint=240 / keyint_min=24 / scenecut=40 / intra_refresh=0 / rc_lookahead=10 / rc=abr / mbtree=1 / bitrate=3820 / ratetol=1.0 / qcomp=0.60 / qpmin=0 / qpmax=69 / qpstep=4 / vbv_maxrate=62500 / vbv_bufsize=78125 / nal_hrd=none / filler=0 / ip_ratio=1.40 / aq=1:1.00 Default : Yes Forced : No Color range : Limited Color primaries : BT.709 Transfer characteristics : BT.709 Matrix coefficients : BT.709 Audio ID : 2 Format : AAC LC Format/Info : Advanced Audio Codec Low Complexity Codec ID : A_AAC-2 Duration : 2 h 7 min Bit rate : 256 kb/s Channel(s) : 2 channels Channel layout : L R Sampling rate : 48.0 kHz Frame rate : 46.875 FPS (1024 SPF) Compression mode : Lossy Delay relative to video : 27 ms Stream size : 234 MiB (6%) Title : Mortal.Engines.2018.1080p.KORSUB.HDRip.x264.AAC2.0-STUTTERSHIT Language : English Default : Yes Forced : No [image]http://cdn.imagecurl.com/images/88376623674247148670.png[/image] [image]http://cdn.imagecurl.com/images/62389539908727194560.png[/image] [image]http://cdn.imagecurl.com/images/44055310806231334790.png[/image] Mortal.Engines.2018.KORSUB.HDRip.x264-STUTTERSHIT Mortal.Engines.2018.KORSUB.HDRip.XviD.MP3-STUTTERSHIT Mortal.Engines.2018.720p.KORSUB.HDRip.XviD.MP3-STUTTERSHIT Mortal.Engines.2018.1080p.KORSUB.HDRip.x264.AAC2.0-STUTTERSHIT