Login

  



┌ltimos mensajes dejados por chakazulu

Mensaje escrito por chakazulu el 02/08/2011 11:35:39 am - Puntaje: 0 
The Lovers Guide 3D, General Unique ID : 176392910204425959349978634041309315630 (0x84B409ED184C456A9B9EB9AA930CC22E) Complete name : I:\\Documentales\\The Lovers Guide 3D\\7sins-the-lovers-guide-2011-720p.mkv Format : Matroska File size : 2.65 GiB Duration : 1h 5mn Overall bit rate : 5 742 Kbps Encoded date : UTC 2011-02-13 22:38:42 Writing application : mkvmerge v4.0.0 (┤The Stars were mine┤) built on Jun 6 2010 16:18:42 Writing library : libebml v1.0.0 + libmatroska v1.0.0 Video ID : 1 Format : AVC Format/Info : Advanced Video Codec Format profile : High@L4.1 Format settings, CABAC : Yes Format settings, ReFrames : 5 frames Codec ID : V_MPEG4/ISO/AVC Duration : 1h 5mn Bit rate : 4 232 Kbps Width : 1 280 pixels Height : 720 pixels Display aspect ratio : 16:9 Frame rate : 23.976 fps Color space : YUV Chroma subsampling : 4:2:0 Bit depth : 8 bits Scan type : Progressive Bits/(PixelFrame) : 0.192 Stream size : 1.90 GiB (72%) Writing library : x264 core 114 r1900 60ef1f8 Encoding settings : cabac=1 / ref=5 / deblock=1:0:0 / analyse=0x3:0x133 / me=umh / subme=7 / psy=1 / psy_rd=1.00:0.00 / mixed_ref=1 / me_range=16 / chroma_me=1 / trellis=1 / 8x8dct=1 / cqm=0 / deadzone=21,11 / fast_pskip=0 / chroma_qp_offset=-2 / threads=12 / sliced_threads=0 / nr=0 / decimate=1 / interlaced=0 / constrained_intra=0 / bframes=3 / b_pyramid=2 / b_adapt=1 / b_bias=0 / direct=1 / weightb=1 / open_gop=0 / weightp=2 / keyint=250 / keyint_min=23 / scenecut=40 / intra_refresh=0 / rc_lookahead=40 / rc=2pass / mbtree=1 / bitrate=4232 / ratetol=1.0 / qcomp=0.60 / qpmin=0 / qpmax=69 / qpstep=4 / cplxblur=20.0 / qblur=0.5 / ip_ratio=1.40 / aq=1:1.00 Language : English Audio ID : 2 Format : DTS Format/Info : Digital Theater Systems Codec ID : A_DTS Duration : 1h 5mn Bit rate mode : Constant Bit rate : 1 510 Kbps Channel(s) : 6 channels Channel positions : Front: L C R, Side: L R, LFE Sampling rate : 48.0 KHz Bit depth : 24 bits Compression mode : Lossy Stream size : 713 MiB (26%) Language : English Text ID : 3 Format : UTF-8 Codec ID : S_TEXT/UTF8 Codec ID/Info : UTF-8 Plain Text Language : English ▒▀▀▀▀▀▀▀▀▀▀▀▀▀▀▀▀▀▀▀▀▀▀▀▀▀▀▀▀▀▀▀▀▀▀▀▀▀▀▀▀▀▀▀▀▀▀▀▀▀▀▀▀▀▀▀▀▀▀▀▀▀▀▀▀▀▀▀▀▀▒ ▓ ▓ ▀▀■▄ ▄▀▀▀▀▀▀▀▀▀▀▀▀▀▀▀▀▀▀▀▀▀▀▀▀▀▀▀▀▀▀▀▀▀▀▀▄ ▄■▀▀ ▀■▄ ▄■Ţ RELEASE.iNFO Ů■▄ ▄■▀ ▀■▄▄■▀ ▀▄▄▄▄▄▄▄▄▄▄▄▄▄▄▄▄▄▄▄▄▄▄▄▄▄▄▄▄▄▄▄▄▄▄▄▀ ▀■▄▄■▀ MOVIE.............: The.Lovers.Guide.3D.2011.READNFO.720p.Bluray.x264-7SiNS YEAR..............: 2011 URL...............: http://www.blu-ray.com/movies/The-Lovers-Guide-3D-Blu-ray/18842 RESOLUTION........: 1280x720 VIDEO.............: 4232kb/s AUDIO FORMAT......: DTS @ 1536Kb/s LANGUAGES.........: English SUBS..............: English ▒▀▀▀▀▀▀▀▀▀▀▀▀▀▀▀▀▀▀▀▀▀▀▀▀▀▀▀▀▀▀▀▀▀▀▀▀▀▀▀▀▀▀▀▀▀▀▀▀▀▀▀▀▀▀▀▀▀▀▀▀▀▀▀▀▀▀▀▀▀▒ ▓ ▓ ▀▀■▄ ▄▀▀▀▀▀▀▀▀▀▀▀▀▀▀▀▀▀▀▀▀▀▀▀▀▀▀▀▀▀▀▀▀▀▀▀▄ ▄■▀▀ ▀■▄ ▄■Ţ PLOT/iNFO Ů■▄ ▄■▀ ▀■▄▄■▀ ▀▄▄▄▄▄▄▄▄▄▄▄▄▄▄▄▄▄▄▄▄▄▄▄▄▄▄▄▄▄▄▄▄▄▄▄▀ ▀■▄▄■▀ GO LOOK FOR IT! ▒▀▀▀▀▀▀▀▀▀▀▀▀▀▀▀▀▀▀▀▀▀▀▀▀▀▀▀▀▀▀▀▀▀▀▀▀▀▀▀▀▀▀▀▀▀▀▀▀▀▀▀▀▀▀▀▀▀▀▀▀▀▀▀▀▀▀▀▀▀▒ ▓ ▓ ▀▀■▄ ▄▀▀▀▀▀▀▀▀▀▀▀▀▀▀▀▀▀▀▀▀▀▀▀▀▀▀▀▀▀▀▀▀▀▀▀▄ ▄■▀▀ ▀■▄ ▄■Ţ NOTES/NEWS Ů■▄ ▄■▀ ▀■▄▄■▀ ▀▄▄▄▄▄▄▄▄▄▄▄▄▄▄▄▄▄▄▄▄▄▄▄▄▄▄▄▄▄▄▄▄▄▄▄▀ ▀■▄▄■▀ This is just the 2D. Tagged 3D because release is called that. Have fun pleasing your partner(s) :D

Mensaje escrito por chakazulu el 09/02/2008 04:03:56 am - Puntaje: 0 
Decir no a la marca AMPTRON.

Mensaje escrito por chakazulu el 09/02/2008 04:01:04 am - Puntaje: 0 
Never Forget (2008) http://www.imdb.com/title/tt0893411/ User Rating: (awaiting 5 votes) 79m14s 576x320 @ 1084kbps English Mp3 136kbps vbr

Mensaje escrito por chakazulu el 27/01/2008 02:52:20 pm - Puntaje: 0 
la voy a ver ahorita!!!

Mensaje escrito por chakazulu el 25/02/2007 01:58:10 pm - Puntaje: 0 
Los subtitulos estan en 12 horas despues del evento del Cada Lost es gratis en : www.lostzilla.net, los hay en Espa˝ol Espa˝a y Espa˝ol Neutro. EStan TODOS LOS SUBTITULOS de TODAS las TEMPORADAS

Mensaje escrito por chakazulu el 25/02/2007 01:54:04 pm - Puntaje: 0 
Los subtitulos estan en 12 horas despues del evento del Cada Lost es gratis en : www.lostzilla.net, los hay en Espa˝ol Espa˝a y Espa˝ol Neutro.

Mensaje escrito por chakazulu el 25/02/2007 02:00:51 am - Puntaje: 0 
Alguien que suba el Sub de la peli Irani: El Circulo

Mensaje escrito por chakazulu el 09/07/2006 01:11:53 am - Puntaje: 0 
Hostel e , los que rifan es: Slaughtered Vomit Dolls (2006) (V) Aqui esta el trailer es esta liga, con gusto http://www.slaughteredvomitdolls.com/trailers/trailer.wmv