Login

  

Long Nights Short Mornings 2016 720p WEB-DL





Thread creado por camuspise el 24/01/2017 01:42:39 pm. Lecturas: 2,250. Mensajes: 2. Favoritos: 1





24/01/2017 01:42:39 pm 
       5                           


Argumento: Un examen de la vida romántica de un joven en la ciudad de Nueva York y sus experiencias a veces fugaces, a veces profundas con las mujeres que encuentra.

IMDB: 5.9 / 10
Genero: Drama - Romance

Video
ID : 1
Format : AVC
Format/Info : Advanced Video Codec
Format profile : High@L4
Format settings, CABAC : Yes
Format settings, ReFrames : 4 frames
Codec ID : V_MPEG4/ISO/AVC
Duration : 1h 41mn
Bit rate : 4 884 Kbps
Width : 1 920 pixels
Height : 1 038 pixels
Display aspect ratio : 1.85:1
Frame rate mode : Constant
Frame rate : 23.976 fps
Color space : YUV
Chroma subsampling : 4:2:0
Bit depth : 8 bits
Scan type : Progressive
Bits/(PixelFrame) : 0.102
Stream size : 3.46 GiB (91%)
Title : Long.Nights.Short.Mornings.2016.1080p.WEB-DL.DD5.1.H264-FGT
Language : English
Default : Yes
Forced : No
Color range : Limited
Color primaries : BT.709
Transfer characteristics : BT.709
Matrix coefficients : BT.709

Audio
ID : 2
Format : AC-3
Format/Info : Audio Coding 3
Mode extension : CM (complete main)
Format settings, Endianness : Big
Codec ID : A_AC3
Duration : 1h 41mn
Bit rate mode : Constant
Bit rate : 384 Kbps
Channel(s) : 6 channels
Channel positions : Front: L C R, Side: L R, LFE
Sampling rate : 48.0 KHz
Frame rate : 31.250 fps (1536 spf)
Compression mode : Lossy
Stream size : 278 MiB (7%)
Title : Long.Nights.Short.Mornings.2016.1080p.WEB-DL.DD5.1.H264-FGT
Language : English
Default : Yes
Forced : No





55 5



24/01/2017 01:50:57 pm 
       2                           
Agregado a Últimos Estrenos - Enero (4). Saludos.




short

1