Login

  

Bad.Words.2013 WEB-DL





Thread creado por darkarterotik el 24/06/2014 05:25:09 pm. Lecturas: 1,337. Mensajes: 4. Favoritos: 0





24/06/2014 05:25:09 pm 
       2                           
darkarterotik


Miembro desde: 12/06/2014

Threads abiertos: 87
Mensajes: 879  
Subtítulos subidos: 0
Threads Favoritos: 1










Video
ID : 1
Format : AVC
Format/Info : Advanced Video Codec
Format profile : High@L40
Format settings, CABAC : Yes
Format settings, ReFrames : 5 frames
Codec ID : V_MPEG4/ISO/AVC
Duration : 1h 28mn
Bit rate : 3 443 Kbps
Width : 1 912 pixels
Height : 796 pixels
Display aspect ratio : 240:1
Frame rate mode : Constant
Frame rate : 23976 fps
Color space : YUV
Chroma subsampling : 4:2:0
Bit depth : 8 bits
Scan type : Progressive
Bits/(PixelFrame) : 0094
Stream size : 214 GiB (88%)
Title : BadWords20131080pWEB-DLDD51H264-RARBG
Language : English
Default : Yes
Forced : No
Color primaries : BT709
Transfer characteristics : BT709
Matrix coefficients : BT709

Audio
ID : 2
Format : AC-3
Format/Info : Audio Coding 3
Mode extension : CM (complete main)
Format settings, Endianness : Big
Codec ID : A_AC3
Duration : 1h 28mn
Bit rate mode : Constant
Bit rate : 384 Kbps
Channel(s) : 6 channels
Channel positions : Front: L C R, Side: L R, LFE
Sampling rate : 480 KHz
Bit depth : 16 bits
Compression mode : Lossy
Stream size : 244 MiB (10%)
Title : BadWords20131080pWEB-DLDD51H264-RARBG
Language : English
Default : Yes
Forced : No
22 2



24/06/2014 06:25:58 pm 
       1                           
AireL


Miembro desde: 16/09/2011

Threads abiertos: 191
Mensajes: 6114  
Subtítulos subidos: 0
Threads Favoritos: 27








25/06/2014 06:07:01 am 
       4                           

25/06/2014 01:02:53 pm 
       1                           
Agregado a Últimos estrenos - Junio (4). Saludos.




badwords

1