Login

  

Brick.Mansion.2014 paul walker - david belle web-rip audio cam





Thread creado por darkarterotik el 21/06/2014 09:53:24 pm. Lecturas: 2,522. Mensajes: 11. Favoritos: 0





21/06/2014 09:53:24 pm 
       4                           
darkarterotik


Miembro desde: 12/06/2014

Threads abiertos: 87
Mensajes: 879  
Subtítulos subidos: 0
Threads Favoritos: 1





atencion ya esta disponible con el audio corregido

BrickMansions2014WEBRipSTUDIOAUDIOXviDMP3


Video
ID : 0
Format : MPEG-4 Visual
Format profile : Simple@L5
Format settings, BVOP : No
Format settings, QPel : No
Format settings, GMC : No warppoints
Format settings, Matrix : Default (H263)
Codec ID : XVID
Codec ID/Hint : XviD
Duration : 1h 21mn
Bit rate : 2 931 Kbps
Width : 720 pixels
Height : 320 pixels
Display aspect ratio : 225:1
Frame rate : 25000 fps
Color space : YUV
Chroma subsampling : 4:2:0
Bit depth : 8 bits
Scan type : Progressive
Compression mode : Lossy
Bits/(PixelFrame) : 0509
Stream size : 168 GiB (93%)
Writing library : Lavc5561100

Audio
ID : 1
Format : MPEG Audio
Format version : Version 1
Format profile : Layer 3
Mode : Joint stereo
Mode extension : MS Stereo
Codec ID : 55
Codec ID/Hint : MP3
Duration : 1h 21mn
Bit rate mode : Constant
Bit rate : 192 Kbps
Channel(s) : 2 channels
Sampling rate : 480 KHz
Compression mode : Lossy
Stream size : 113 MiB (6%)
Alignment : Aligned on interleaves
Interleave, duration : 24 ms (060 video frame)
Interleave, preload duration : 504 ms

Ultima edición por darkarterotik el 23/06/2014 06:05:45 , editado 2veces
44 4



21/06/2014 09:59:04 pm 
       0                           
AireL


Miembro desde: 16/09/2011

Threads abiertos: 191
Mensajes: 6114  
Subtítulos subidos: 0
Threads Favoritos: 27








21/06/2014 10:18:35 pm 
       3                           
¿Esta la filmó antes de morirse o después?


22/06/2014 01:26:12 am 
       0                           
sanbrian23


Miembro desde: 06/07/2012

Threads abiertos: 18
Mensajes: 108  
Subtítulos subidos: 3
Threads Favoritos: 0





Garyullo escribió:
¿Esta la filmó antes de morirse o después?


y eso importa?????


22/06/2014 09:13:57 am 
       1                           
snake69


Miembro desde: 12/02/2014

Threads abiertos: 0
Mensajes: 34  
Subtítulos subidos: 0
Threads Favoritos: 0



ojala salgan subtitulos para este webrip porque la pelicula esta bien border="0" src=img/foro/weep.gif>


22/06/2014 02:18:30 pm 
       1                           
Agregado a Últimos estrenos - Junio (3). Saludos.


22/06/2014 06:21:19 pm 
       14                           
sanbrian23 escribió:
Garyullo escribió: ¿Esta la filmó antes de morirse o después?y eso importa?????


¿¡Cómo no va a importar!?
Si la filmó después de morir, significa que hay vida después de la muerte.
Una de las preguntas fundamentales de la filosofía humana quedaría, de este modo respondida y ¿¡me preguntás si importa o no!?


22/06/2014 08:28:10 pm 
       3                           
lukitah


Miembro desde: 06/06/2007

Threads abiertos: 2
Mensajes: 338  
Subtítulos subidos: 6
Threads Favoritos: 0





Garyullo escribió:
sanbrian23 escribió: Garyullo escribió: ¿Esta la filmó antes de morirse o después?y eso importa?????¿¡Cómo no va a importar!?Si la filmó después de morir, significa que hay vida después de la muerte. Una de las preguntas fundamentales de la filosofía humana quedaría, de este modo respondida y ¿¡me preguntás si importa o no!?


jajajajajaja me hiciste cagar de risa


23/06/2014 11:20:39 pm 
       0                           
thematrixr


Miembro desde: 23/08/2009

Threads abiertos: 34
Mensajes: 361  
Subtítulos subidos: 0
Threads Favoritos: 0





lukitah escribió:
Garyullo escribió: sanbrian23 escribió: Garyullo escribió: ¿Esta la filmó antes de morirse o después?y eso importa?????¿¡Cómo no va a importar!?Si la filmó después de morir, significa que hay vida después de la muerte. Una de las preguntas fundamentales de la filosofía humana quedaría, de este modo respondida y ¿¡me preguntás si importa o no!?jajajajajaja me hiciste cagar de risa
jejej aqui hacen tantas pregunta estupida jejeje sorry


23/06/2014 11:21:18 pm 
       2                           
Garyullo escribió:
sanbrian23 escribió: Garyullo escribió: ¿Esta la filmó antes de morirse o después?y eso importa?????¿¡Cómo no va a importar!?Si la filmó después de morir, significa que hay vida después de la muerte. Una de las preguntas fundamentales de la filosofía humana quedaría, de este modo respondida y ¿¡me preguntás si importa o no!?





¡¡Eres desp p-p-preziable!!




23/06/2014 11:31:48 pm 
       1                           
xVic4x


Miembro desde: 19/07/2012

Threads abiertos: 8
Mensajes: 2296  
Subtítulos subidos: 0
Threads Favoritos: 0





Remake de Banlieue 13?? Hasta trabaja el mismisimo David belle...




brickmansion

3