Login

  



Frozen II (2019)





Thread creado por antillan0 el 01/01/2020 09:27:26 pm. Lecturas: 26. Mensajes: 20. Favoritos: 0





01/01/2020 09:27:26 pm 
       12                           
antillan0


Miembro desde: 05/11/2015

Threads abiertos: 4
Mensajes: 3510  
Subtítulos subidos: 573
Threads Favoritos: 0





Frozen II (2019)



General
Complete name : Frozen.2.2019.DVDScr.XVID.AC3.HQ.Hive-CM8.avi
Format : AVI
Format/Info : Audio Video Interleave
File size : 1.64 GiB
Duration : 1h 43mn
Overall bit rate : 2 269 Kbps
Writing application : Nandub v1.0rc2
Writing library : Nandub build 1853/release

Video
ID : 0
Format : MPEG-4 Visual
Format profile : Advanced Simple@L5
Format settings, BVOP : 2
Format settings, QPel : Yes
Format settings, GMC : No warppoints
Format settings, Matrix : Default (H.263)
Muxing mode : Packed bitstream
Codec ID : XVID
Codec ID/Hint : XviD
Duration : 1h 43mn
Bit rate : 2 004 Kbps
Width : 720 pixels
Height : 304 pixels
Display aspect ratio : 2.35:1
Frame rate : 23.976 fps
Color space : YUV
Chroma subsampling : 4:2:0
Bit depth : 8 bits
Scan type : Progressive
Compression mode : Lossy
Bits/(PixelFrame) : 0.382
Stream size : 1.44 GiB (88%)
Writing library : XviD 1.2.1 (UTC 2008-12-04)

Audio
ID : 1
Format : AC-3
Format/Info : Audio Coding 3
Mode extension : CM (complete main)
Format settings, Endianness : Big
Codec ID : 2000
Duration : 1h 43mn
Bit rate mode : Constant
Bit rate : 256 Kbps
Channel(s) : 2 channels
Channel positions : Front: L R
Sampling rate : 48.0 KHz
Bit depth : 16 bits
Compression mode : Lossy
Stream size : 189 MiB (11%)
Alignment : Split accross interleaves
Interleave, duration : 42 ms (1.00 video frame)
Interleave, preload duration : 500 ms


















Cast:
Kristen Bell ... Anna (voice)
Idina Menzel ... Elsa (voice)
Josh Gad ... Olaf (voice)
Jonathan Groff ... Kristoff (voice)
Sterling K. Brown.. Mattias (voice)
Evan Rachel Wood... Iduna (voice)
Alfred Molina ... Agnarr (voice)
Martha Plimpton ... Yelena (voice)
Jason Ritter ... Ryder (voice)
Rachel Matthews ... Honeymaren (voice)
Jeremy Sisto ... King Runeard (voice)
Ciarán Hinds ... Pabbie (voice)
Alan Tudyk ... Guard / Northuldra Leader / Arendellian Soldier / Duke of Weselton (voice)
Hadley Gannaway ... Young Anna (voice)
Mattea Conforti ... Young Elsa (voice)


Acá se compra
1212 12



01/01/2020 09:29:08 pm 
       2                           
antillan0


Miembro desde: 05/11/2015

Threads abiertos: 4
Mensajes: 3510  
Subtítulos subidos: 573
Threads Favoritos: 0





Pero qué inicio de año nuevo!!!


01/01/2020 09:33:02 pm 
       0                           
trekall


Miembro desde: 03/01/2013

Threads abiertos: 22
Mensajes: 207  
Subtítulos subidos: 0
Threads Favoritos: 0





Gran inicio 2020!! CM8 esta a full esta temporada!


01/01/2020 10:39:40 pm 
       3                           
cinecubano


Miembro desde: 10/01/2017

Threads abiertos: 4
Mensajes: 828  
Subtítulos subidos: 0
Threads Favoritos: 4





antillan0 escribió:
Frozen II 2019 //imagizer.imageshack.us/v2/1024x768q90/923/cQHPUo.jpg//imagizer.imageshack.com/img923/9571/IUWVZw.gifGeneralComplete name : Frozen.2.2019.DVDScr.XVID.AC3.HQ.Hive-CM8.aviFormat : AVIFormat/Info : Audio Video InterleaveFile size : 1.64 GiBDuration : 1h 43mnOverall bit rate : 2 269 KbpsWriting application : Nandub v1.0rc2Writing library : Nandub build 1853/releaseVideoID : 0Format : MPEG-4 VisualFormat profile : Advanced Simple@L5Format settings, BVOP : 2Format settings, QPel : YesFormat settings, GMC : No warppointsFormat settings, Matrix : Default H.263Muxing mode : Packed bitstreamCodec ID : XVIDCodec ID/Hint : XviDDuration : 1h 43mnBit rate : 2 004 KbpsWidth : 720 pixelsHeight : 304 pixelsDisplay aspect ratio : 2.35:1Frame rate : 23.976 fpsColor space : YUVChroma subsampling : 4:2:0Bit depth : 8 bitsScan type : ProgressiveCompression mode : LossyBits/PixelFrame : 0.382Stream size : 1.44 GiB 88%Writing library : XviD 1.2.1 UTC 2008-12-04AudioID : 1Format : AC-3Format/Info : Audio Coding 3Mode extension : CM complete mainFormat settings, Endianness : BigCodec ID : 2000Duration : 1h 43mnBit rate mode : ConstantBit rate : 256 KbpsChannels : 2 channelsChannel positions : Front: L RSampling rate : 48.0 KHzBit depth : 16 bitsCompression mode : LossyStream size : 189 MiB 11%Alignment : Split accross interleavesInterleave, duration : 42 ms 1.00 video frameInterleave, preload duration : 500 ms//imagizer.imageshack.us/v2/1024x768q90/921/ZE7UlP.png //imagizer.imageshack.us/v2/1024x768q90/924/JBRy9Y.png //imagizer.imageshack.us/v2/1024x768q90/922/LbQDSt.png ///imagizer.imageshack.us/v2/1024x768q90/922/q7EDbL.png//imageshack.com/a/img921/5571/DVN7L1.gif//imagizer.imageshack.com/img923/9571/IUWVZw.gifCast:Kristen Bell ... Anna voiceIdina Menzel ... Elsa voiceJosh Gad ... Olaf voiceJonathan Groff ... Kristoff voiceSterling K. Brown.. Mattias voiceEvan Rachel Wood... Iduna voiceAlfred Molina ... Agnarr voiceMartha Plimpton ... Yelena voiceJason Ritter ... Ryder voiceRachel Matthews ... Honeymaren voiceJeremy Sisto ... King Runeard voiceCiarán Hinds ... Pabbie voiceAlan Tudyk ... Guard / Northuldra Leader / Arendellian Soldier / Duke of Weselton voiceHadley Gannaway ... Young Anna voiceMattea Conforti ... Young Elsa voice//rarbg.to/torrent/74zpq8v Acá se compra


un capo usted con los subs amigo, mis respetos


02/01/2020 03:43:24 am 
       0                           
REYMEN_DVD


Miembro desde: 17/04/2006

Threads abiertos: 6
Mensajes: 100  
Subtítulos subidos: 0
Threads Favoritos: 0





Alguien sabe donde conseguir el audio latino?


02/01/2020 06:01:54 am 
       0                           
Que onda la calidad?... alguien la bajo ya?.. .Y subtitulos o audio latino hay algo ya??


02/01/2020 08:48:51 am 
       0                           
Icchan


Miembro desde: 09/10/2004

Threads abiertos: 1
Mensajes: 96  
Subtítulos subidos: 0
Threads Favoritos: 0





Alguna idea si esta con audio latino?


02/01/2020 11:03:42 am 
       0                           
cerocool007


Miembro desde: 09/06/2013

Threads abiertos: 0
Mensajes: 9  
Subtítulos subidos: 0
Threads Favoritos: 0



Icchan escribió:
Alguna idea si esta con audio latino?


La pelicula esta en audio ingles


02/01/2020 11:05:22 am 
       1                           
asakuras


Miembro desde: 25/01/2008

Threads abiertos: 17
Mensajes: 328  
Subtítulos subidos: 10
Threads Favoritos: 0





Icchan escribió:
Alguna idea si esta con audio latino?


Ingles,el latino siempre tarada un poco mas.


02/01/2020 11:15:51 am 
       1                           
ElSenorGalante


Miembro desde: 27/12/2015

Threads abiertos: 2
Mensajes: 275  
Subtítulos subidos: 0
Threads Favoritos: 0





Que genial estoy loca loca loca por verla. Ya preparé mi traje de princesa


02/01/2020 11:16:56 am 
       1                           
ElSenorGalante


Miembro desde: 27/12/2015

Threads abiertos: 2
Mensajes: 275  
Subtítulos subidos: 0
Threads Favoritos: 0





asakuras escribió:
Icchan escribió: Alguna idea si esta con audio latino? Ingles,el latino siempre tarada un poco mas.

Si, tarda por que es tarada


02/01/2020 11:50:15 am 
       2                           
cerocool007


Miembro desde: 09/06/2013

Threads abiertos: 0
Mensajes: 9  
Subtítulos subidos: 0
Threads Favoritos: 0



Busque la peli con audio latino lo estraje ahi dejo el link por mediafire.
Eso si no se como adjuntarlo en el video que esta en el link de descarga, si alguien me lo explica de como hacer de juntar el vidio avi junto al audio latino que estraje se lo estaria agradecido.

www.mediafire.com/file/ycwdhg6ojvce9p0/OP-tt4520988-TS.mka/file


02/01/2020 02:25:37 pm 
       1                           
trekall


Miembro desde: 03/01/2013

Threads abiertos: 22
Mensajes: 207  
Subtítulos subidos: 0
Threads Favoritos: 0






02/01/2020 02:29:01 pm 
       1                           
cerocool007 escribió:
Busque la peli con audio latino lo estraje ahi dejo el link por mediafire.Eso si no se como adjuntarlo en el video que esta en el link de descarga, si alguien me lo explica de como hacer de juntar el vidio avi junto al audio latino que estraje se lo estaria agradecido.www.mediafire.com/file/ycwdhg6ojvce9p0/OP-tt4520988-TS.mka/file


Esta desfasado , por que el audio es de una versión distinta,


02/01/2020 05:40:43 pm 
       0                           
Tuta80


Miembro desde: 02/01/2019

Threads abiertos: 0
Mensajes: 2  
Subtítulos subidos: 0
Threads Favoritos: 0



Alguien sabe los subtitulos de esta version?

Frozen II (2019) 720p HDRip Multi HQ Auds [Hin + Tel + Tam + Eng] - x264


03/01/2020 01:22:52 am 
       2                           
devito


Miembro desde: 21/04/2006

Threads abiertos: 10
Mensajes: 484  
Subtítulos subidos: 0
Threads Favoritos: 710





elreikista escribió:
cerocool007 escribió: Busque la peli con audio latino lo estraje ahi dejo el link por mediafire.Eso si no se como adjuntarlo en el video que esta en el link de descarga, si alguien me lo explica de como hacer de juntar el vidio avi junto al audio latino que estraje se lo estaria agradecido.www.mediafire.com/file/ycwdhg6ojvce9p0/OP-tt4520988-TS.mka/fileEsta desfasado , por que el audio es de una versión distinta,


El audio de cerocool007 es line, se escucha mal, pero como es para mi sobrinita no es muy exigente, se te agradece! se arregla sincronizando a 6.000s con la version Frozen.2.2019.DVDScr.XVID.AC3.HQ.Hive-CM8


03/01/2020 11:23:45 am 
       5                           
en identi.li salio una con un audio sincronizado...





05/01/2020 02:16:57 pm 
       3                           
dumbomalo


Miembro desde: 11/04/2005

Threads abiertos: 2
Mensajes: 123  
Subtítulos subidos: 0
Threads Favoritos: 0





siempre me pregunte xq a muchos le gusta mirar peliculas en mala calidad y con mal audio solo x el hecho de ser nuevas. Si una pelicula es arte, es sonido e imagen, seria como comer asado o pollo crudo


07/01/2020 07:04:08 am 
       2                           
dumbomalo escribió:
siempre me pregunte xq a muchos le gusta mirar peliculas en mala calidad y con mal audio solo x el hecho de ser nuevas. Si una pelicula es arte, es sonido e imagen, seria como comer asado o pollo crudo



En este caso es una película infantil, y ellos mucho de calidades no les interesa , quieren verla nada mas




frozen

1