Login

  



Toy Story 4 2019 1080p HDRip





Thread creado por mazafumy el 14/09/2019 08:05:30 pm. Lecturas: 26. Mensajes: 20. Favoritos: 0





14/09/2019 08:05:30 pm 
   7                           
Release Name:

Toy Story 4 2019 1080p HDRip X264 AC3-EVO
Toy Story 4 2019 720p HDRip X264 AC3-EVO
Toy Story 4 2019 HDRip XviD-EVO




















77 7



14/09/2019 08:28:53 pm 
   1                           
trekall


Miembro desde: 03/01/2013

Threads abiertos: 24
Mensajes: 224  
Subtítulos subidos: 0
Threads Favoritos: 0





No esperaba tan rapido el release Que bueno! Tengo muchas ganas de ver esta nueva peli de Toy Story (no la pude ver en el cine) !


14/09/2019 09:07:50 pm 
   4                           
CarlosMA


Miembro desde: 27/09/2014

Threads abiertos: 0
Mensajes: 8  
Subtítulos subidos: 0
Threads Favoritos: 0



Alguien sabe donde puedo encontrar el audio en Espa帽ol latino? saludos


14/09/2019 09:14:09 pm 
   2                           
Toy.Story.4.2019.1080p.WEBRip.x264.AAC2.0-SHITBOX


14/09/2019 10:14:46 pm 
   1                           
mauri15


Miembro desde: 29/11/2004

Threads abiertos: 28
Mensajes: 1149  
Subtítulos subidos: 9
Threads Favoritos: 0





CarlosMA escribi贸:
Alguien sabe donde puedo encontrar el audio en Espa帽ol latino? saludos


Me uno al pedido del audio latino. Todas las vi en espa帽ol latino. Gracias.


14/09/2019 11:31:27 pm 
   3                           
mauri15 escribi贸:
CarlosMA escribi贸: Alguien sabe donde puedo encontrar el audio en Espa帽ol latino? saludosMe uno al pedido del audio latino. Todas las vi en espa帽ol latino. Gracias.



el WEB-DL con audio limpio latino sale el 1 de octubre. esto tiene solo ingles...

Audio
ID : 2
Format : AAC LC
Format/Info : Advanced Audio Codec Low Complexity
Codec ID : A_AAC-2
Duration : 1 h 39 min
Bit rate : 256 kb/s
Channel(s) : 2 channels
Channel layout : L R
Sampling rate : 48.0 kHz
Frame rate : 46.875 FPS (1024 SPF)
Compression mode : Lossy
Delay relative to video : 24 ms
Stream size : 181 MiB (4%)
Title : Toy.Story.4.2019.1080p.WEBRip.x264.AAC2.0-SHITBOX
Language : English
Default : Yes
Forced : No


lo unico que pueden hacer es esperar, que alguien sincronice un audio latino de cine...


15/09/2019 12:19:16 am 
   0                           
trekall


Miembro desde: 03/01/2013

Threads abiertos: 24
Mensajes: 224  
Subtítulos subidos: 0
Threads Favoritos: 0





mazafumy escribi贸:
mauri15 escribi贸: CarlosMA escribi贸: Alguien sabe donde puedo encontrar el audio en Espa帽ol latino? saludosMe uno al pedido del audio latino. Todas las vi en espa帽ol latino. Gracias.el WEB-DL con audio limpio latino sale el 1 de octubre. esto tiene solo ingles... AudioID : 2Format : AAC LCFormat/Info : Advanced Audio Codec Low ComplexityCodec ID : A_AAC-2Duration : 1 h 39 minBit rate : 256 kb/sChannels : 2 channelsChannel layout : L RSampling rate : 48.0 kHzFrame rate : 46.875 FPS 1024 SPFCompression mode : LossyDelay relative to video : 24 msStream size : 181 MiB 4%Title : Toy.Story.4.2019.1080p.WEBRip.x264.AAC2.0-SHITBOXLanguage : EnglishDefault : YesForced : Nolo unico que pueden hacer es esperar, que alguien sincronice un audio latino de cine...


Osea que oficialmente esta copia de TS4 salia el 01/10/19? Nose como hacen los sparrow.. con spiderman tambien la sacaron antes


15/09/2019 01:06:24 am 
   0                           
mauri15


Miembro desde: 29/11/2004

Threads abiertos: 28
Mensajes: 1149  
Subtítulos subidos: 9
Threads Favoritos: 0





mazafumy escribi贸:
mauri15 escribi贸: CarlosMA escribi贸: Alguien sabe donde puedo encontrar el audio en Espa帽ol latino? saludosMe uno al pedido del audio latino. Todas las vi en espa帽ol latino. Gracias.el WEB-DL con audio limpio latino sale el 1 de octubre. esto tiene solo ingles... AudioID : 2Format : AAC LCFormat/Info : Advanced Audio Codec Low ComplexityCodec ID : A_AAC-2Duration : 1 h 39 minBit rate : 256 kb/sChannels : 2 channelsChannel layout : L RSampling rate : 48.0 kHzFrame rate : 46.875 FPS 1024 SPFCompression mode : LossyDelay relative to video : 24 msStream size : 181 MiB 4%Title : Toy.Story.4.2019.1080p.WEBRip.x264.AAC2.0-SHITBOXLanguage : EnglishDefault : YesForced : Nolo unico que pueden hacer es esperar, que alguien sincronice un audio latino de cine...


Ah Ok. Gracias por la info. A esperar.


15/09/2019 09:04:39 am 
   1                           
Jah_Ivan


Miembro desde: 29/07/2005

Threads abiertos: 18
Mensajes: 302  
Subtítulos subidos: 10
Threads Favoritos: 0





seguro por ahi sale un release con este video y audio latino al menos calidad line. asi como aladin que el audio era bueno.


15/09/2019 10:47:50 am 
   0                           
zomib


Miembro desde: 19/01/2015

Threads abiertos: 5
Mensajes: 22  
Subtítulos subidos: 0
Threads Favoritos: 0





hay subtitulos ya? border="0" src=img/foro/grin.gif>


15/09/2019 12:02:08 pm 
   1                           
nico013


Miembro desde: 12/11/2006

Threads abiertos: 3
Mensajes: 69  
Subtítulos subidos: 4
Threads Favoritos: 0





https://drive.google.com/uc?id=1-gh1SVbO8-Wwl1Lz53vTgMHd3PzCNQ6l&export=download
Buenas, ahi est谩 sincronizado el audio de cine con la versi贸n de buena calidad, si a alguien le sirve para zafar de momento


15/09/2019 02:17:27 pm 
   0                           
devito


Miembro desde: 21/04/2006

Threads abiertos: 11
Mensajes: 516  
Subtítulos subidos: 0
Threads Favoritos: 731





nico013 escribi贸:
https://drive.google.com/uc?id=1-gh1SVbO8-Wwl1Lz53vTgMHd3PzCNQ6l&export=downloadBuenas, ahi est谩 sincronizado el audio de cine con la versi贸n de buena calidad, si a alguien le sirve para zafar de momento


Y pesa solo 1.6gb el archivo de audio con el video de buena calidad? o es que esta comprimido? igual ya lo estoy descargando, anoche le dije a mis sobrinos y me tienen puteado con la bendita pelicula... gracias!


15/09/2019 02:49:15 pm 
   0                           
felixed67


Miembro desde: 23/06/2013

Threads abiertos: 55
Mensajes: 1009  
Subtítulos subidos: 0
Threads Favoritos: 27





nico013 escribi贸:
https://drive.google.com/uc?id=1-gh1SVbO8-Wwl1Lz53vTgMHd3PzCNQ6l&export=downloadBuenas, ahi est谩 sincronizado el audio de cine con la versi贸n de buena calidad, si a alguien le sirve para zafar de momento


Perfecto, graciass


15/09/2019 02:50:51 pm 
   0                           
Alister702


Miembro desde: 16/01/2017

Threads abiertos: 37
Mensajes: 766  
Subtítulos subidos: 0
Threads Favoritos: 4





Pueden verla en gnula.nu ahi esta en audio latino
Saludos a todos


15/09/2019 06:05:58 pm 
   1                           
GrosoyGroso


Miembro desde: 11/02/2012

Threads abiertos: 72
Mensajes: 677  
Subtítulos subidos: 340
Threads Favoritos: 0





bit.ly/2kO7Jpp

identi ya esta dual


16/09/2019 09:25:31 am 
   0                           
butuss


Miembro desde: 14/08/2006

Threads abiertos: 202
Mensajes: 1007  
Subtítulos subidos: 11
Threads Favoritos: 0








16/09/2019 11:54:38 pm 
   0                           
nico013 escribi贸:
https://drive.google.com/uc?id=1-gh1SVbO8-Wwl1Lz53vTgMHd3PzCNQ6l&export=downloadBuenas, ahi est谩 sincronizado el audio de cine con la versi贸n de buena calidad, si a alguien le sirve para zafar de momento


Descargando, quise descargar desde identi, pero la usuaria que le compro material ya no usa casi zippyshare, y el resto de servers son una porquer铆a


17/09/2019 12:24:15 am 
   2                           
devito


Miembro desde: 21/04/2006

Threads abiertos: 11
Mensajes: 516  
Subtítulos subidos: 0
Threads Favoritos: 731





Saludos, aqu铆 les dejo Toy Story 4 (2019) [AC3 2.0] [Audio Line] descarga desde googledrive. Version grabada de cine, solo para los mas desesperados! No es de mi preferencia, pero para mis sobrinitos zaf贸!
contrase帽a zip: audiosparapeliculas2.foroactivo.com

Pesa 90 mb, yo la us茅 con 麓麓Toy.Story.4.2019.1080p.WEBRip.x264.AAC2.0-SHITBOX麓麓 y calza perfecto...


18/09/2019 07:37:15 am 
   0                           
elGabon


Miembro desde: 16/01/2016

Threads abiertos: 10
Mensajes: 1073  
Subtítulos subidos: 1
Threads Favoritos: 0








25/09/2019 09:50:18 pm 
   1                           
Toy.Story.4.2019.DVDRip.XviD.AC3-EVO con audio latino final !!




image

1