Login

  

Bumblebee (2018) Blu-ray 4K





Thread creado por Papelillio el 23/03/2019 12:02:47 am. Lecturas: 26. Mensajes: 20. Favoritos: 1





23/03/2019 12:02:47 am 
       8                           
Papelillio


Miembro desde: 18/06/2016

Threads abiertos: 83
Mensajes: 281  
Subtítulos subidos: 6
Threads Favoritos: 0







Bumblebee.2018.UHD.BluRay.2160p.TrueHD.Atmos.7.1.HEVC.REMUX-FraMeSToR.mkv (44.2GB)

Bumblebee.2018.REMUX.2160p.UHD.BluRay.HEVC.TrueHD.Atmos.7.1.Dual.Latino-Papelillio.mkv (44.2GB)

DESCARGA POR GOOGLE DRIVE ACÁ

DESCARGA POR UPTOBOX ACÁ

General
Complete name : Bumblebee.2018.REMUX.2160p.UHD.BluRay.HEVC.TrueHD.Atmos.7.1.Dual.Latino-Papelillio.mkv
Format : Matroska
Format version : Version 4 / Version 2
File size : 44.3 GiB
Duration : 1 h 53 min
Overall bit rate mode : Variable
Overall bit rate : 55.7 Mb/s
Encoded date : UTC 2019-03-23 04:24:05
Writing application : mkvmerge v7.9.0 (Birds) 64bit
Writing library : libebml v1.3.1 + libmatroska v1.4.2

Video
ID : 1
Format : HEVC
Format/Info : High Efficiency Video Coding
Format profile : Main 10@L5.1@High
Codec ID : V_MPEGH/ISO/HEVC
Duration : 1 h 53 min
Bit rate : 49.6 Mb/s
Width : 3 840 pixels
Height : 2 160 pixels
Display aspect ratio : 16:9
Frame rate mode : Constant
Frame rate : 23.976 (24000/1001) FPS
Color space : YUV
Chroma subsampling : 4:2:0 (Type 2)
Bit depth : 10 bits
Bits/(PixelFrame) : 0.249
Stream size : 39.4 GiB (89%)
Title : Fuente: BD4K - Papelillio
Default : Yes
Forced : No
Color range : Limited
Color primaries : BT.2020
Transfer characteristics : SMPTE ST 2084
Matrix coefficients : BT.2020 non-constant
Mastering display color primar : R: x=0.680000 y=0.320000, G: x=0.265000 y=0.690000, B: x=0.150000 y=0.060000, White point: x=0.312700 y=0.329000
Mastering display luminance : min: 0.0001 cd/m2, max: 1000.0000 cd/m2

Audio #1
ID : 2
Format : AC-3
Format/Info : Audio Coding 3
Mode extension : CM (complete main)
Format settings, Endianness : Big
Codec ID : A_AC3
Duration : 1 h 53 min
Bit rate mode : Constant
Bit rate : 640 kb/s
Channel(s) : 6 channels
Channel positions : Front: L C R, Side: L R, LFE
Sampling rate : 48.0 kHz
Frame rate : 31.250 FPS (1536 spf)
Bit depth : 16 bits
Compression mode : Lossy
Stream size : 521 MiB (1%)
Title : Audio Español Latino AC3 5.1 @640Kbps - Papelillio
Language : Spanish
Default : Yes
Forced : Yes

Audio #2
ID : 3
Format : Atmos / TrueHD
Codec ID : A_TRUEHD
Duration : 1 h 53 min
Bit rate mode : Variable
Bit rate : 4 736 kb/s
Maximum bit rate : 7 761 kb/s
Channel(s) : Object Based / 8 channels
Channel positions : Object Based / Front: L C R, Side: L R, Back: L R, LFE
Sampling rate : / 48.0 kHz
Frame rate : 1 200.000 FPS (40 spf)
Compression mode : Lossless
Stream size : 3.77 GiB (9%)
Title : Audio Inglés TrueHD Atmos 7.1 @4736Kbps - Papelillio
Language : English
Default : No
Forced : No

Audio #3
ID : 4
Format : AC-3
Format/Info : Audio Coding 3
Mode extension : CM (complete main)
Format settings, Endianness : Big
Codec ID : A_AC3
Duration : 1 h 53 min
Bit rate mode : Constant
Bit rate : 640 kb/s
Channel(s) : 6 channels
Channel positions : Front: L C R, Side: L R, LFE
Sampling rate : 48.0 kHz
Frame rate : 31.250 FPS (1536 spf)
Bit depth : 16 bits
Compression mode : Lossy
Stream size : 521 MiB (1%)
Title : Audio Inglés AC3 5.1-EX @640Kbps - Papelillio
Language : English
Default : No
Forced : No

Text #1
ID : 5
Format : UTF-8
Codec ID : S_TEXT/UTF8
Codec ID/Info : UTF-8 Plain Text
Duration : 1 h 43 min
Bit rate : 1 b/s
Count of elements : 50
Stream size : 1.40 KiB (0%)
Title : Subtítulos Español Latino - Forzados (SRT) - Papelillio
Language : Spanish
Default : Yes
Forced : Yes

Text #2
ID : 6
Format : UTF-8
Codec ID : S_TEXT/UTF8
Codec ID/Info : UTF-8 Plain Text
Duration : 1 h 48 min
Bit rate : 39 b/s
Count of elements : 1121
Stream size : 31.6 KiB (0%)
Title : Subtítulos Español Latino (SRT) - Papelillio
Language : Spanish
Default : No
Forced : No

Text #3
ID : 7
Format : PGS
Muxing mode : zlib
Codec ID : S_HDMV/PGS
Codec ID/Info : Picture based subtitle format used on BDs/HD-DVDs
Duration : 1 h 52 min
Bit rate : 7 221 b/s
Count of elements : 2246
Stream size : 5.83 MiB (0%)
Title : Subtítulos Español Latino (PGS) - Papelillio
Language : Spanish
Default : No
Forced : No

Menu
00:00:00.000 : en:Chapter 01
00:03:30.710 : en:Chapter 02
00:12:16.486 : en:Chapter 03
00:16:56.724 : en:Chapter 04
00:21:03.053 : en:Chapter 05
00:26:42.601 : en:Chapter 06
00:32:33.326 : en:Chapter 07
00:39:44.090 : en:Chapter 08
00:45:18.591 : en:Chapter 09
00:50:43.624 : en:Chapter 10
00:54:16.253 : en:Chapter 11
01:01:10.709 : en:Chapter 12
01:06:26.900 : en:Chapter 13
01:11:39.545 : en:Chapter 14
01:16:08.105 : en:Chapter 15
01:21:37.142 : en:Chapter 16
01:25:08.603 : en:Chapter 17
01:30:15.410 : en:Chapter 18
01:36:46.801 : en:Chapter 19
01:43:52.560 : en:Chapter 20
01:49:43.202 : en:Chapter 21



88 8



23/03/2019 08:31:28 am 
       0                           
volvieron las subidas de papelillio!!!
es HDR o SDR?


23/03/2019 10:36:33 am 
       0                           
sonic2482


Miembro desde: 04/05/2015

Threads abiertos: 7
Mensajes: 345  
Subtítulos subidos: 16
Threads Favoritos: 0





Gracias


23/03/2019 10:50:03 am 
       0                           
Puedo bajar la versión Bumblebee.2018.UHD.BluRay.2160p.TrueHD.Atmos.7.1.HEVC.REMUX-FraMeSToR.mkv (44.2GB)..mi pregunta es si el Kodi me lo lee?, tengo un TV LG 4K de 60 pulgadas.

Edit: lo empece a bajara full de mi ancho de banda pero el problema como hago para pasar 45 Gb de la PC a un Disco duro externo???


23/03/2019 03:05:01 pm 
       0                           
Orfeox


Miembro desde: 24/04/2006

Threads abiertos: 2
Mensajes: 6692  
Subtítulos subidos: 0
Threads Favoritos: 0





sonic2482 escribió:
Gracias


Es genial ese momento cuando a alguien q se la paso meses juntando negativos bardeando a las peliculas de Marvel por la falta de argumento lo ves agradeciendo un Spin off the Transformers . Se ve q ni en tu estupidez podes mantener coherencia .


23/03/2019 03:18:44 pm 
       0                           
Estoy re podrido con lo que tardan en sacar los blu ray, ni hablar de las en 3D, recién la otra semana pude bajar Aquaman en 4k y esta semana en 3D, cuando ya la vi en cam y hasta en web-dl.


23/03/2019 05:16:42 pm 
       0                           
Jah_Ivan


Miembro desde: 29/07/2005

Threads abiertos: 17
Mensajes: 260  
Subtítulos subidos: 9
Threads Favoritos: 0





twisted666 escribió:
Estoy re podrido con lo que tardan en sacar los blu ray, ni hablar de las en 3D, recién la otra semana pude bajar Aquaman en 4k y esta semana en 3D, cuando ya la vi en cam y hasta en web-dl.


tu comentario es un poco incoherente. Si viste la peli en CAM imagino que fue durante el tiempo que se estaba proyectando en el cine, estas reprodido porque para ese tiempo no ha salido el BLURAY?? No entiendo tu comentario la verdad.

De todos modos:
Como regla dorada, una vez que la pelicula este en cines, agrega 3 a 4 meses para que salga en BLURAY.
Descuenta de ese tiempo aproximandamente 2 semanas para que salga el WEB-DL.

POR QUE?
Porque a las casas productoras les de la gana.

Por qué sale el WEB DL antes del disco fisico? Si envias algo a alguien, cuándo llega primero: via email o via correo postal?

Agradece que no gastas un centimo en ver la pelicula ya sea en CAM, WEBDL, 4K o 3D

Disfruta la peli.


23/03/2019 05:19:00 pm 
       1                           
Jah_Ivan


Miembro desde: 29/07/2005

Threads abiertos: 17
Mensajes: 260  
Subtítulos subidos: 9
Threads Favoritos: 0





Caprica escribió:
Puedo bajar la versión Bumblebee.2018.UHD.BluRay.2160p.TrueHD.Atmos.7.1.HEVC.REMUX-FraMeSToR.mkv 44.2GB..mi pregunta es si el Kodi me lo lee?, tengo un TV LG 4K de 60 pulgadas.Edit: lo empece a bajara full de mi ancho de banda pero el problema como hago para pasar 45 Gb de la PC a un Disco duro externo???


Kodi lo debe leer si. Si tu maquina donde esta instalado es lo suficientemente potente para ello.

El disco duro externo lo conectas a la PC via USB y listo, transfieres.


23/03/2019 05:45:41 pm 
       1                           
Jah_Ivan escribió:
twisted666 escribió: Estoy re podrido con lo que tardan en sacar los blu ray, ni hablar de las en 3D, recién la otra semana pude bajar Aquaman en 4k y esta semana en 3D, cuando ya la vi en cam y hasta en web-dl.tu comentario es un poco incoherente. Si viste la peli en CAM imagino que fue durante el tiempo que se estaba proyectando en el cine, estas reprodido porque para ese tiempo no ha salido el BLURAY?? No entiendo tu comentario la verdad. De todos modos:Como regla dorada, una vez que la pelicula este en cines, agrega 3 a 4 meses para que salga en BLURAY. Descuenta de ese tiempo aproximandamente 2 semanas para que salga el WEB-DL. POR QUE?Porque a las casas productoras les de la gana. Por qué sale el WEB DL antes del disco fisico? Si envias algo a alguien, cuándo llega primero: via email o via correo postal?Agradece que no gastas un centimo en ver la pelicula ya sea en CAM, WEBDL, 4K o 3DDisfruta la peli.


Ya se que mi comentario es incoherente, ¿Nunca comiste rapido la parte favorita del helado y después no te gusta la fea? ¿O jamás compraste una ropa pensando ´´voy a variar de colores´´ y cuando llega el día de usarla decís ´´Para que mierda compre esto!, No me gusta!´´?! ¿Nunca te tropezaste con una silla y maldijiste a la concha de la lora? La concha de la lora no tiene la culpa pero te sigue hinchando las pelotas que te hayas golpeado la rodilla, y te chupa un huevo lo que piense la concha de la lora, ni tampoco es un insulto hacía ella, es una expresión, hacia el aire sobre la concha de la lora, nada más, ni menos, ni intermedio. Se entiende.


23/03/2019 06:29:38 pm 
       0                           
Jah_Ivan escribió:
Caprica escribió: Puedo bajar la versión Bumblebee.2018.UHD.BluRay.2160p.TrueHD.Atmos.7.1.HEVC.REMUX-FraMeSToR.mkv 44.2GB..mi pregunta es si el Kodi me lo lee?, tengo un TV LG 4K de 60 pulgadas.Edit: lo empece a bajara full de mi ancho de banda pero el problema como hago para pasar 45 Gb de la PC a un Disco duro externo???Kodi lo debe leer si. Si tu maquina donde esta instalado es lo suficientemente potente para ello. El disco duro externo lo conectas a la PC via USB y listo, transfieres.


Perdón pero no lo dije, el Kodi lo tengo en tv Box conectado a la TV, el tema es pasar 45 Gb a un disco duro externo el cual uso para ver pelis, el torrent esta configurado para descargar al Disco externo, pero el google drive me lo baja a la pc y para pasarlo voy a estar una eternidad!!!


23/03/2019 08:41:39 pm 
       0                           
Orfeox


Miembro desde: 24/04/2006

Threads abiertos: 2
Mensajes: 6692  
Subtítulos subidos: 0
Threads Favoritos: 0





twisted666 escribió:
Jah_Ivan escribió: twisted666 escribió: Estoy re podrido con lo que tardan en sacar los blu ray, ni hablar de las en 3D, recién la otra semana pude bajar Aquaman en 4k y esta semana en 3D, cuando ya la vi en cam y hasta en web-dl.tu comentario es un poco incoherente. Si viste la peli en CAM imagino que fue durante el tiempo que se estaba proyectando en el cine, estas reprodido porque para ese tiempo no ha salido el BLURAY?? No entiendo tu comentario la verdad. De todos modos:Como regla dorada, una vez que la pelicula este en cines, agrega 3 a 4 meses para que salga en BLURAY. Descuenta de ese tiempo aproximandamente 2 semanas para que salga el WEB-DL. POR QUE?Porque a las casas productoras les de la gana. Por qué sale el WEB DL antes del disco fisico? Si envias algo a alguien, cuándo llega primero: via email o via correo postal?Agradece que no gastas un centimo en ver la pelicula ya sea en CAM, WEBDL, 4K o 3DDisfruta la peli.Ya se que mi comentario es incoherente, ¿Nunca comiste rapido la parte favorita del helado y después no te gusta la fea? ¿O jamás compraste una ropa pensando voy a variar de colores y cuando llega el día de usarla decís Para que mierda compre esto!, No me gusta!?! ¿Nunca te tropezaste con una silla y maldijiste a la concha de la lora? La concha de la lora no tiene la culpa pero te sigue hinchando las pelotas que te hayas golpeado la rodilla, y te chupa un huevo lo que piense la concha de la lora, ni tampoco es un insulto hacía ella, es una expresión, hacia el aire sobre la concha de la lora, nada más, ni menos, ni intermedio. Se entiende.


Lo q mas raro se me hace es como haces para tropezarte con una silla y golpearte la rodilla O.o , como no seas enano las medidas no dan .


23/03/2019 08:43:03 pm 
       0                           
Si que dan, podes tropezarte, caerte encima de la silla y dar con la rodilla. Aparte tiene rima.


24/03/2019 10:19:08 am 
       1                           
Jah_Ivan


Miembro desde: 29/07/2005

Threads abiertos: 17
Mensajes: 260  
Subtítulos subidos: 9
Threads Favoritos: 0





Caprica escribió:
Jah_Ivan escribió: Caprica escribió: Puedo bajar la versión Bumblebee.2018.UHD.BluRay.2160p.TrueHD.Atmos.7.1.HEVC.REMUX-FraMeSToR.mkv 44.2GB..mi pregunta es si el Kodi me lo lee?, tengo un TV LG 4K de 60 pulgadas.Edit: lo empece a bajara full de mi ancho de banda pero el problema como hago para pasar 45 Gb de la PC a un Disco duro externo???Kodi lo debe leer si. Si tu maquina donde esta instalado es lo suficientemente potente para ello. El disco duro externo lo conectas a la PC via USB y listo, transfieres.Perdón pero no lo dije, el Kodi lo tengo en tv Box conectado a la TV, el tema es pasar 45 Gb a un disco duro externo el cual uso para ver pelis, el torrent esta configurado para descargar al Disco externo, pero el google drive me lo baja a la pc y para pasarlo voy a estar una eternidad!!!
Caprica escribió:
Jah_Ivan escribió: Caprica escribió: Puedo bajar la versión Bumblebee.2018.UHD.BluRay.2160p.TrueHD.Atmos.7.1.HEVC.REMUX-FraMeSToR.mkv 44.2GB..mi pregunta es si el Kodi me lo lee?, tengo un TV LG 4K de 60 pulgadas.Edit: lo empece a bajara full de mi ancho de banda pero el problema como hago para pasar 45 Gb de la PC a un Disco duro externo???Kodi lo debe leer si. Si tu maquina donde esta instalado es lo suficientemente potente para ello. El disco duro externo lo conectas a la PC via USB y listo, transfieres.Perdón pero no lo dije, el Kodi lo tengo en tv Box conectado a la TV, el tema es pasar 45 Gb a un disco duro externo el cual uso para ver pelis, el torrent esta configurado para descargar al Disco externo, pero el google drive me lo baja a la pc y para pasarlo voy a estar una eternidad!!!


No me queda muy claro tu ´´setup´´..
por disco duro externo entiendo que es probablemente un western digital passport, o algo asi, el cual lo conectas por medio de usb. En ese caso entonces conecta el disco duro al pc y transfiere la peli.

Si no es asi, entonces tu otra opcion es via red. Accesas a ese disco duro desde tu pc via ftp o smb y transfieres. La velocidad dependera de como este configurada tu red, si todo esta cableado o si es via wifi, si tienes una red wifi N o AC.. en fin.


24/03/2019 10:24:47 am 
       0                           
Jah_Ivan


Miembro desde: 29/07/2005

Threads abiertos: 17
Mensajes: 260  
Subtítulos subidos: 9
Threads Favoritos: 0





Papelillio escribió:


Gracias por el aporte papelillio, no la iba a bajar porque la vi cuando salio el HC y la verdad la peli no me gustó, pero ahora con audio latino de repente le guste a mi hijo. Excelente aporte.

Tendras alguna carpeta de gdrive en donde tengas mas pelis remux 4k? ya tengo aquaman y todas las jurassic park/world. a ver si de repente tienes alguna otra peli que me guste en esta calidad.


24/03/2019 10:26:12 am 
       0                           
Jah_Ivan


Miembro desde: 29/07/2005

Threads abiertos: 17
Mensajes: 260  
Subtítulos subidos: 9
Threads Favoritos: 0





Hwoarang escribió:
volvieron las subidas de papelillio!!!es HDR o SDR?

por lo general los remuxes son HDR.. de todos modos el nfo lo confirma:

Color range : Limited
Color primaries : BT.2020
Transfer characteristics : SMPTE ST 2084
Matrix coefficients : BT.2020 non-constant


24/03/2019 12:56:13 pm 
       0                           
had-z


Miembro desde: 13/07/2007

Threads abiertos: 0
Mensajes: 73  
Subtítulos subidos: 68
Threads Favoritos: 0



excelente aporte, con google drive se obtiene toda la velocidad disponible, lo único que corregiría es que viene para verla por defecto en latino (Audio Español y subs forzados), pero es un detalle

Muchas gracias.


24/03/2019 05:03:35 pm 
       1                           
bard


Miembro desde: 24/07/2005

Threads abiertos: 31
Mensajes: 227  
Subtítulos subidos: 8
Threads Favoritos: 0





Miren la película, pero no la recomiendo es mala mala mala mala, más de una hora de drama adolescente y protección del ´´desvalido´´ abejorro, acción bue miren ustedes, pero me quedo con las viejas de Bay. El Hype ochentoso muy mal hecho.


25/03/2019 09:41:37 am 
       0                           
Muchisimas Gracias Papelillio, hoy la pongo a bajar!!!


25/03/2019 08:20:58 pm 
       0                           
vicessa


Miembro desde: 13/02/2010

Threads abiertos: 1
Mensajes: 1196  
Subtítulos subidos: 2
Threads Favoritos: 0





Papelillio escribió:
3.bp.blogspot.com/-xpmBvHqvpGQ/XJW43sn79DI/AAAAAAAAIhQ/E7LmKHMVs5o9A17mWiYV7UoKK8GUiFwAQCLcBGAs/s1600/222812_slip.jpgBumblebee.2018.UHD.BluRay.2160p.TrueHD.Atmos.7.1.HEVC.REMUX-FraMeSToR.mkv 44.2GBBumblebee.2018.REMUX.2160p.UHD.BluRay.HEVC.TrueHD.Atmos.7.1.Dual.Latino-Papelillio.mkv 44.2GBhttps://drive.google.com/uc?id=1uaSfPcnEAtldDQeUqltx_CA2ENn8QmfD&export=download DESCARGA POR GOOGLE DRIVE ACÁhttps://uptobox.com/3dhlwowybxhv DESCARGA POR UPTOBOX ACÁGeneralComplete name : Bumblebee.2018.REMUX.2160p.UHD.BluRay.HEVC.TrueHD.Atmos.7.1.Dual.Latino-Papelillio.mkvFormat : MatroskaFormat version : Version 4 / Version 2File size : 44.3 GiBDuration : 1 h 53 minOverall bit rate mode : VariableOverall bit rate : 55.7 Mb/sEncoded date : UTC 2019-03-23 04:24:05Writing application : mkvmerge v7.9.0 Birds 64bitWriting library : libebml v1.3.1 + libmatroska v1.4.2VideoID : 1Format : HEVCFormat/Info : High Efficiency Video CodingFormat profile : Main 10@L5.1@HighCodec ID : V_MPEGH/ISO/HEVCDuration : 1 h 53 minBit rate : 49.6 Mb/sWidth : 3 840 pixelsHeight : 2 160 pixelsDisplay aspect ratio : 16:9Frame rate mode : ConstantFrame rate : 23.976 24000/1001 FPSColor space : YUVChroma subsampling : 4:2:0 Type 2Bit depth : 10 bitsBits/PixelFrame : 0.249Stream size : 39.4 GiB 89%Title : Fuente: BD4K - PapelillioDefault : YesForced : NoColor range : LimitedColor primaries : BT.2020Transfer characteristics : SMPTE ST 2084Matrix coefficients : BT.2020 non-constantMastering display color primar : R: x=0.680000 y=0.320000, G: x=0.265000 y=0.690000, B: x=0.150000 y=0.060000, White point: x=0.312700 y=0.329000Mastering display luminance : min: 0.0001 cd/m2, max: 1000.0000 cd/m2Audio #1ID : 2Format : AC-3Format/Info : Audio Coding 3Mode extension : CM complete mainFormat settings, Endianness : BigCodec ID : A_AC3Duration : 1 h 53 minBit rate mode : ConstantBit rate : 640 kb/sChannels : 6 channelsChannel positions : Front: L C R, Side: L R, LFESampling rate : 48.0 kHzFrame rate : 31.250 FPS 1536 spfBit depth : 16 bitsCompression mode : LossyStream size : 521 MiB 1%Title : Audio Español Latino AC3 5.1 @640Kbps - PapelillioLanguage : SpanishDefault : YesForced : YesAudio #2ID : 3Format : Atmos / TrueHDCodec ID : A_TRUEHDDuration : 1 h 53 minBit rate mode : VariableBit rate : 4 736 kb/sMaximum bit rate : 7 761 kb/sChannels : Object Based / 8 channelsChannel positions : Object Based / Front: L C R, Side: L R, Back: L R, LFESampling rate : / 48.0 kHzFrame rate : 1 200.000 FPS 40 spfCompression mode : LosslessStream size : 3.77 GiB 9%Title : Audio Inglés TrueHD Atmos 7.1 @4736Kbps - PapelillioLanguage : EnglishDefault : NoForced : NoAudio #3ID : 4Format : AC-3Format/Info : Audio Coding 3Mode extension : CM complete mainFormat settings, Endianness : BigCodec ID : A_AC3Duration : 1 h 53 minBit rate mode : ConstantBit rate : 640 kb/sChannels : 6 channelsChannel positions : Front: L C R, Side: L R, LFESampling rate : 48.0 kHzFrame rate : 31.250 FPS 1536 spfBit depth : 16 bitsCompression mode : LossyStream size : 521 MiB 1%Title : Audio Inglés AC3 5.1-EX @640Kbps - PapelillioLanguage : EnglishDefault : NoForced : NoText #1ID : 5Format : UTF-8Codec ID : S_TEXT/UTF8Codec ID/Info : UTF-8 Plain TextDuration : 1 h 43 minBit rate : 1 b/sCount of elements : 50Stream size : 1.40 KiB 0%Title : Subtítulos Español Latino - Forzados SRT - PapelillioLanguage : SpanishDefault : YesForced : YesText #2ID : 6Format : UTF-8Codec ID : S_TEXT/UTF8Codec ID/Info : UTF-8 Plain TextDuration : 1 h 48 minBit rate : 39 b/sCount of elements : 1121Stream size : 31.6 KiB 0%Title : Subtítulos Español Latino SRT - PapelillioLanguage : SpanishDefault : NoForced : NoText #3ID : 7Format : PGSMuxing mode : zlibCodec ID : S_HDMV/PGSCodec ID/Info : Picture based subtitle format used on BDs/HD-DVDsDuration : 1 h 52 minBit rate : 7 221 b/sCount of elements : 2246Stream size : 5.83 MiB 0%Title : Subtítulos Español Latino PGS - PapelillioLanguage : SpanishDefault : NoForced : NoMenu00:00:00.000 : en:Chapter 0100:03:30.710 : en:Chapter 0200:12:16.486 : en:Chapter 0300:16:56.724 : en:Chapter 0400:21:03.053 : en:Chapter 0500:26:42.601 : en:Chapter 0600:32:33.326 : en:Chapter 0700:39:44.090 : en:Chapter 0800:45:18.591 : en:Chapter 0900:50:43.624 : en:Chapter 1000:54:16.253 : en:Chapter 1101:01:10.709 : en:Chapter 1201:06:26.900 : en:Chapter 1301:11:39.545 : en:Chapter 1401:16:08.105 : en:Chapter 1501:21:37.142 : en:Chapter 1601:25:08.603 : en:Chapter 1701:30:15.410 : en:Chapter 1801:36:46.801 : en:Chapter 1901:43:52.560 : en:Chapter 2001:49:43.202 : en:Chapter 212.bp.blogspot.com/-SXqODU5ClXw/XJW4y0rO-FI/AAAAAAAAIhM/W5E1eF8-UJ4vTT2KrYRpGcxnubugpdscwCLcBGAs/s0/01.png1.bp.blogspot.com/-pPWfQrWYUio/XJW43Wwm9sI/AAAAAAAAIhU/65N7Ihz4Ab0oons2cFA6Qui_dwfW93scACLcBGAs/s0/02.png


Gracias piratillo


26/03/2019 08:52:31 am 
       0                           
Jah_Ivan escribió:
Caprica escribió: Jah_Ivan escribió: Caprica escribió: Puedo bajar la versión Bumblebee.2018.UHD.BluRay.2160p.TrueHD.Atmos.7.1.HEVC.REMUX-FraMeSToR.mkv 44.2GB..mi pregunta es si el Kodi me lo lee?, tengo un TV LG 4K de 60 pulgadas.Edit: lo empece a bajara full de mi ancho de banda pero el problema como hago para pasar 45 Gb de la PC a un Disco duro externo???Kodi lo debe leer si. Si tu maquina donde esta instalado es lo suficientemente potente para ello. El disco duro externo lo conectas a la PC via USB y listo, transfieres.Perdón pero no lo dije, el Kodi lo tengo en tv Box conectado a la TV, el tema es pasar 45 Gb a un disco duro externo el cual uso para ver pelis, el torrent esta configurado para descargar al Disco externo, pero el google drive me lo baja a la pc y para pasarlo voy a estar una eternidad!!! Caprica escribió: Jah_Ivan escribió: Caprica escribió: Puedo bajar la versión Bumblebee.2018.UHD.BluRay.2160p.TrueHD.Atmos.7.1.HEVC.REMUX-FraMeSToR.mkv 44.2GB..mi pregunta es si el Kodi me lo lee?, tengo un TV LG 4K de 60 pulgadas.Edit: lo empece a bajara full de mi ancho de banda pero el problema como hago para pasar 45 Gb de la PC a un Disco duro externo???Kodi lo debe leer si. Si tu maquina donde esta instalado es lo suficientemente potente para ello. El disco duro externo lo conectas a la PC via USB y listo, transfieres.Perdón pero no lo dije, el Kodi lo tengo en tv Box conectado a la TV, el tema es pasar 45 Gb a un disco duro externo el cual uso para ver pelis, el torrent esta configurado para descargar al Disco externo, pero el google drive me lo baja a la pc y para pasarlo voy a estar una eternidad!!! No me queda muy claro tu setup.. por disco duro externo entiendo que es probablemente un western digital passport, o algo asi, el cual lo conectas por medio de usb. En ese caso entonces conecta el disco duro al pc y transfiere la peli. Si no es asi, entonces tu otra opcion es via red. Accesas a ese disco duro desde tu pc via ftp o smb y transfieres. La velocidad dependera de como este configurada tu red, si todo esta cableado o si es via wifi, si tienes una red wifi N o AC.. en fin.


Lo transfiere de la pc al Disco duro externo ( es de 500 Gb, un Verbatin), pero como t dije pasar 45 Gb de una pc a un disco externo...cuanto me puede tardar en un Win XP!!!, una eternidad!!!




blu-ray

1