Login

  

The Emoji Movie (2017) HC HDRIP





Thread creado por SantiagoDG el 02/10/2017 09:30:13 am. Lecturas: 2,844. Mensajes: 13. Favoritos: 0





02/10/2017 09:30:13 am 
       4                           
SantiagoDG


Miembro desde: 29/09/2006

Threads abiertos: 138
Mensajes: 261  
Subtítulos subidos: 21
Threads Favoritos: 0





The Emoji Movie (2017) HC HDRIP









Título original The Emoji Movie
AKA Emojimovie: Express Yourself
Año 2017
Duración 86 min.
País Estados Unidos
Director Anthony Leondis
Guion Tony Leondis, Eric Siegel, Mike White (Historia: Tony Leondis, Eric Siegel)
Música Patrick Doyle
Fotografía Animation
Reparto Animation
Productora Sony Pictures Animation / Columbia Pictures / LStar Capital
Género Animación. Comedia. Aventuras Internet / Informática. 3-D
Web oficial www.theemoji-movie.com/

Sinopsis
Los protagonistas habitan la misteriosa tierra de Textopolis, donde todos los emojis favoritos de la gente cobran vida, mientras esperan ser seleccionados por el usuario del teléfono. Todos los personajes tienen una sola expresión facial a excepción de Gen (TJ Miller), un emoji que nació sin filtro y se llena de múltiples expresiones. Para lograr ser normal, Gen se embarcará en una aventura o “app-ventura”, junto a sus amigos Hi-5 y Jailbreak. Pero pronto, una gran amenaza hará que el destino de estos personajes dependa de los tres amigos, teniendo que salvar su mundo antes que sea borrado por completo.

Release Name: The.Emoji.Movie.2017.HC.HDRip.XviD.AC3-EVO
Size:
1.18 GB
Video: AVi 720×400 1900 Kbps
Audio: English AC3 192 Kbps
Runtime: 1h 20min
Subtitles: Korean Hardcoded

Release Name: The.Emoji.Movie.2017.HC.HDRIP.x264.AC3-TiTAN
Size:
1.42 GB
Video: MKV 720×400 2350 Kbps
Audio: English AC3 192 Kbps
Runtime: 1h 20min
Subtitles: Korean Hardcoded

Release Name: The.Emoji.Movie.2017.720p.HC.HDRIP.x264.AC3-TiTAN
Size:
3.64 GB
Video: MKV 1280 x 720 5965 Kbps
Audio: English AC3 384 Kbps
Runtime: 1h 20mn
Subtitles: Korean Hardcoded















44 4



02/10/2017 09:34:14 am 
       1                           
Agregado a Últimos Estrenos - Octubre. Saludos.


02/10/2017 10:36:59 am 
       3                           
vegafox


Miembro desde: 11/08/2010

Threads abiertos: 28
Mensajes: 4583  
Subtítulos subidos: 22
Threads Favoritos: 0





NOOOO Gracias!!! Si con los subtitulos coreanos no los bajo, imaginate con los arabes arriba...




02/10/2017 10:49:05 am 
       1                           
esta peli me recuerda la gente de aca que pelea por ver quien publica algo primero jajajaja es koreanos mas arabe dioss se puede ser mas pirata,


02/10/2017 11:56:15 am 
       2                           
trekall


Miembro desde: 03/01/2013

Threads abiertos: 4
Mensajes: 77  
Subtítulos subidos: 0
Threads Favoritos: 0





Sub Koreano + Sub Arabe + Sub Español... paso, gracias! Debe faltar poco para la version limpia


02/10/2017 12:46:44 pm 
       2                           



02/10/2017 01:19:45 pm 
       2                           
rocabos


Miembro desde: 25/11/2007

Threads abiertos: 62
Mensajes: 1298  
Subtítulos subidos: 109
Threads Favoritos: 0





¿Qué clase de demente hace una cosa de estas? ¿Serán que no saben de los contenedores? o bueno, con una propaganda de su página al principio es suficiente. No creo que esta versión prospere. Gracias por la info, sirve para estar pendiente desde ahora. No demora.


02/10/2017 02:48:19 pm 
       0                           
ramma07


Miembro desde: 11/12/2007

Threads abiertos: 0
Mensajes: 15964  
Subtítulos subidos: 0
Threads Favoritos: 0






02/10/2017 04:01:13 pm 
       4                           
Recién salió esta versión con solamente los korsub pegados...

The Emoji Movie 2017 HC HDRIP x264 AC3 TiTAN (1.4 GB)
Source: OWN 1080p (BIG THX BRO)

General
Format : Matroska
Format version : Version 2
File size : 1.43 GiB
Duration : 1h 20mn
Overall bit rate mode : Variable
Overall bit rate : 2 544 Kbps

Video
ID : 1
Format : AVC
Format/Info : Advanced Video Codec
Format profile : High@L4.1
Format settings, CABAC : Yes
Format settings, ReFrames : 3 frames
Codec ID : V_MPEG4/ISO/AVC
Duration : 1h 20mn
Bit rate mode : Variable
Bit rate : 2 350 Kbps
Maximum bit rate : 40.0 Mbps
Width : 720 pixels
Height : 400 pixels
Display aspect ratio : 16:9
Frame rate mode : Constant
Frame rate : 30.000 fps
Color space : YUV
Chroma subsampling : 4:2:0
Bit depth : 8 bits
Scan type : Progressive
Bits/(PixelFrame) : 0.272
Stream size : 1.29 GiB (90%)
Default : Yes
Forced : No
Color primaries : BT.709
Transfer characteristics : BT.709
Matrix coefficients : BT.709

Audio
ID : 2
Format : AC-3
Format/Info : Audio Coding 3
Mode extension : CM (complete main)
Format settings, Endianness : Big
Codec ID : A_AC3
Duration : 1h 20mn
Bit rate mode : Constant
Bit rate : 192 Kbps
Channel(s) : 2 channels
Channel positions : Front: L R
Sampling rate : 48.0 KHz
Bit depth : 16 bits
Compression mode : Lossy
Stream size : 111 MiB (8%)
Language : English
Default : Yes
Forced : No


02/10/2017 04:07:00 pm 
       4                           








04/10/2017 12:28:56 am 
       1                           
maldad


Miembro desde: 22/12/2003

Threads abiertos: 72
Mensajes: 646  
Subtítulos subidos: 0
Threads Favoritos: 0






09/10/2017 07:05:35 pm 
       1                           
Salio el blu-ray

The Emoji Movie 2017 720p BluRay x264-DRONES (2.7 GB)
The Emoji Movie 2017 BDRip x264-DRONES (632 MB)


09/10/2017 07:50:14 pm 
       1                           
The.Emoji.Movie.2017.720p.BluRay.x264-DRONES




emoji

1