Login

  

Ghost In The Shell (2017) BluRay





Thread creado por cgarcia1097 el 12/07/2017 01:56:14 am. Lecturas: 1,971. Mensajes: 4. Favoritos: 0





12/07/2017 01:56:14 am 
       16                           
Ghost.in.the.Shell.2017.1080p/720p.BluRay.x264-DRONES
Releases:
Ghost.in.the.Shell.2017.720p.BRRip.XviD.AC3-RARBG 3.33 GB
Ghost.in.the.Shell.2017.BRRip.XviD.AC3-RARBG 1.54 GB
Ghost.in.the.Shell.2017.BRRip.XviD.MP3-RARBG 1.36 GB
Ghost.in.the.Shell.2017.BDRip.x264-DRONES 636.89 MB
Ghost.in.the.Shell.2017.720p.BluRay.x264-DRONES 4.38 GB
Ghost.in.the.Shell.2017.720p.BluRay.H264.AAC-RARBG 1.30 GB



Información
IMDB: tt1219827
Título: Ghost.In.The.Shell.2017.
Género: Action , Crime , Drama , Mystery , Sci-Fi , Thriller.
Duración: 01:47 hrs at 24.000 fps (720p FGT)-01:47hrs at 23.976 (1080p STRiFE)
Director: Rupert Sanders.
Guión: Shirow Masamune (based on the comic ´´The Ghost in the Shell´´ by), Jamie Moss.
Reparto: Scarlett Johansson, Pilou Asbæk, Takeshi Kitano...

Sinopsis
Basada en la internacionalmente aclamada saga de ciencia ficción, Ghost in the Shell narra la historia de the Major, un híbrido cyborg-humano femenino único en su especie, de operaciones especiales, que dirige un grupo operativo de elite llamado Sección 9. Consagrada a detener a los extremistas y criminales más peligrosos, la Sección 9 se enfrenta a un enemigo cuyo objetivo principal consiste en anular los avances de Hanka Robotic en el campo de la ciber-tecnología. (Abandomoviez)

[-] Hide MediaInfo

Video
ID : 1
Format : AVC
Format/Info : Advanced Video Codec
Format profile : High@L4.1
Format settings, CABAC : Yes
Format settings, ReFrames : 5 frames
Codec ID : V_MPEG4/ISO/AVC
Duration : 1h 46mn
Bit rate : 5 210 Kbps
Width : 1 280 pixels
Height : 720 pixels
Display aspect ratio : 16:9
Frame rate mode : Constant
Frame rate : 23.976 fps
Color space : YUV
Chroma subsampling : 4:2:0
Bit depth : 8 bits
Scan type : Progressive
Bits/(PixelFrame) : 0.236
Stream size : 3.89 GiB (89%)
Writing library : x264 core 150 r2833 df79067
Encoding settings : cabac=1 / ref=5 / deblock=1:0:0 / analyse=0x3:0x133 / me=umh / subme=7 / psy=1 / psy_rd=1.00:0.00 / mixed_ref=1 / me_range=16 / chroma_me=1 / trellis=1 / 8x8dct=1 / cqm=0 / deadzone=21,11 / fast_pskip=0 / chroma_qp_offset=-2 / threads=22 / lookahead_threads=3 / sliced_threads=0 / nr=0 / decimate=1 / interlaced=0 / bluray_compat=0 / constrained_intra=0 / bframes=3 / b_pyramid=2 / b_adapt=1 / b_bias=0 / direct=1 / weightb=1 / open_gop=0 / weightp=2 / keyint=250 / keyint_min=23 / scenecut=40 / intra_refresh=0 / rc_lookahead=40 / rc=2pass / mbtree=1 / bitrate=5210 / ratetol=1.0 / qcomp=0.60 / qpmin=0 / qpmax=69 / qpstep=4 / cplxblur=20.0 / qblur=0.5 / ip_ratio=1.40 / aq=1:1.00
Language : English
Default : Yes
Forced : No

Audio
ID : 2
Format : AC-3
Format/Info : Audio Coding 3
Mode extension : CM (complete main)
Format settings, Endianness : Big
Codec ID : A_AC3
Duration : 1h 46mn
Bit rate mode : Constant
Bit rate : 640 Kbps
Channel(s) : 6 channels
Channel positions : Front: L C R, Side: L R, LFE
Sampling rate : 48.0 KHz
Frame rate : 31.250 fps (1536 spf)
Compression mode : Lossy
Stream size : 490 MiB (11%)
Language : English
Default : Yes
Forced : No

Menu
00:00:00.000 : en:00:00:00.000
00:08:09.322 : en:00:08:09.322
00:14:39.962 : en:00:14:39.962
00:21:26.494 : en:00:21:26.494
00:28:02.681 : en:00:28:02.681
00:34:13.218 : en:00:34:13.218
00:39:27.615 : en:00:39:27.615
00:43:57.802 : en:00:43:57.802
00:51:49.815 : en:00:51:49.815
00:55:19.066 : en:00:55:19.066
01:01:06.872 : en:01:01:06.872
01:07:49.732 : en:01:07:49.732
01:14:36.972 : en:01:14:36.972
01:20:31.744 : en:01:20:31.744
01:27:46.178 : en:01:27:46.178
01:33:41.407 : en:01:33:41.407
01:38:00.083 : en:01:38:00.083






1616 16



12/07/2017 01:57:40 am 
       3                           
Agregado a Últimos Estrenos - Julio (2). Saludos.


19/07/2017 02:38:44 pm 
       1                           
Buenas, Les dejo para que puedan agregar el audio latino extraido del bluray, con estas caracteristicas:


Audio
Format : AC-3
Format/Info : Audio Coding 3
Format settings, Endianness : Big
Duration : 1 h 46 min
Bit rate mode : Constant
Bit rate : 640 kb/s
Channel(s) : 6 channels
Channel positions : Front: L C R, Side: L R, LFE
Sampling rate : 48.0 kHz
Bit depth : 16 bits
Compression mode : Lossy
Stream size : 490 MiB (100%)

Audio Latino - Gracias Oraldo

Sin Delay para estas versiones:

Ghost.in.the.Shell.2017.BDRip.x264-DRONES
Ghost.in.the.Shell.2017.BRRip.XviD.AC3-EVO
Ghost.in.the.Shell.2017.720p.BluRay.x264-Nitro
Ghost.in.the.Shell.2017.MULTi.1080p.BluRay.x264-VENUE
Ghost.in.the.Shell.2017.720p.BRRip.x264-MkvCage
Ghost.in.the.Shell.2017.720p.BluRay.x264-DRONES
Ghost.in.the.Shell.2017.1080p.BluRay.H264.AAC-RARBG
Ghost.in.the.Shell.2017.720p.BluRay.x264-ShAaNiG
Ghost.In.The.Shell.2017.1080p.BluRay.x264-[YTS.AG]
Ghost.in.the.Shell.2017.720p.BluRay.2CH.x265.HEVC-PSA


19/07/2017 09:22:24 pm 
       0                           
camuspise escribió:
Buenas, Les dejo para que puedan agregar el audio latino extraido del bluray, con estas caracteristicas:



Excelente !




ghost

1