Login

  

Journey to the West 2: The Demons Strike Back (2017) WEB-DL





Thread creado por Beelzebul el 17/04/2017 10:26:05 pm. Lecturas: 3,009. Mensajes: 14. Favoritos: 1





17/04/2017 10:26:05 pm 
       9                           


SINOPSIS
Secuela de ´´Journey to the West: Conquering the Demons´´ (2013). Adaptación libre de la historia china del Rey Mono.

Journey.to.the.West.Demon.Chapter.2017.1080p.WEB-DL.DD5.1.H264-TAiCHi.mkv


Format : Matroska
Format version : Version 4 / Version 2
File size : 4.30 GiB
Duration : 1 h 48 min
Overall bit rate : 5 669 kb/s
Encoded date : UTC 2017-04-12 19:10:34
Writing application : mkvmerge v10.0.0 (To Drown In You) 64bit
Writing library : libebml v1.3.4 + libmatroska v1.4.5

Video
ID : 1
Format : AVC
Format/Info : Advanced Video Codec
Format profile : High@L4
Format settings, CABAC : Yes
Format settings, ReFrames : 4 frames
Codec ID : V_MPEG4/ISO/AVC
Duration : 1 h 48 min
Bit rate : 5 155 kb/s
Width : 1 920 pixels
Height : 1 032 pixels
Display aspect ratio : 1.85:1
Frame rate mode : Constant
Frame rate : 23.976 (23976/1000) FPS
Color space : YUV
Chroma subsampling : 4:2:0
Bit depth : 8 bits
Scan type : Progressive
Bits/(PixelFrame) : 0.109
Stream size : 3.91 GiB (91%)
Language : Chinese
Default : Yes
Forced : No
Color range : Limited
Color primaries : BT.709
Transfer characteristics : BT.709
Matrix coefficients : BT.709

Audio #1
ID : 2
Format : AC-3
Format/Info : Audio Coding 3
Mode extension : CM (complete main)
Format settings, Endianness : Big
Codec ID : A_AC3
Duration : 1 h 48 min
Bit rate mode : Constant
Bit rate : 384 kb/s
Channel(s) : 6 channels
Channel positions : Front: L C R, Side: L R, LFE
Sampling rate : 48.0 kHz
Frame rate : 31.250 FPS (1536 spf)
Compression mode : Lossy
Delay relative to video : 33 ms
Stream size : 298 MiB (7%)
Language : Chinese
Default : Yes
Forced : No

Audio #2
ID : 3
Format : AAC
Format/Info : Advanced Audio Codec
Format profile : LC
Codec ID : A_AAC
Duration : 1 h 48 min
Bit rate : 127 kb/s
Channel(s) : 2 channels
Channel positions : Front: L R
Sampling rate : 48.0 kHz
Frame rate : 46.875 FPS (1024 spf)
Compression mode : Lossy
Delay relative to video : 30 ms
Stream size : 98.8 MiB (2%)
Language : Chinese
Default : No
Forced : No













99 9



17/04/2017 11:22:53 pm 
       1                           
ramma07


Miembro desde: 11/12/2007

Threads abiertos: 0
Mensajes: 15969  
Subtítulos subidos: 0
Threads Favoritos: 0



La otra adaptación fue la de Jet Li y Jackie Chan o nada que ver


18/04/2017 12:17:28 am 
       1                           
ramma07 escribió:
La otra adaptación fue la de Jet Li y Jackie Chan o nada que ver


Hay varias adaptaciones... esa es una... y tan mal no estuvo.


18/04/2017 12:22:39 am 
       2                           
ramma07


Miembro desde: 11/12/2007

Threads abiertos: 0
Mensajes: 15969  
Subtítulos subidos: 0
Threads Favoritos: 0



Beelzebul escribió:
ramma07 escribió: La otra adaptación fue la de Jet Li y Jackie Chan o nada que ver Hay varias adaptaciones... esa es una... y tan mal no estuvo.


Pero había un pelotudo onda Shia Labeouf que no servía pa nada, era un tronco el hdp


18/04/2017 12:46:45 am 
       0                           
ramma07 escribió:
Beelzebul escribió: ramma07 escribió: La otra adaptación fue la de Jet Li y Jackie Chan o nada que ver Hay varias adaptaciones... esa es una... y tan mal no estuvo.Pero había un pelotudo onda Shia Labeouf que no servía pa nada, era un tronco el hdp


The Forbidden Kingdom (2008) con Michael Angarano... A mí me entretuvo...


18/04/2017 03:26:34 pm 
       1                           
Agregado a Últimos Estrenos - Abril (3). Saludos.


18/04/2017 08:41:47 pm 
       0                           
Gracias por el aviso, pero paso


18/04/2017 11:17:55 pm 
       2                           
Chilito07 escribió:
Gracias por el aviso, pero paso


¿Viste la primera? Es genial...


19/04/2017 02:32:42 am 
       1                           
docrats


Miembro desde: 25/06/2007

Threads abiertos: 18
Mensajes: 178  
Subtítulos subidos: 0
Threads Favoritos: 1





Las pelis del croto de Stephen Chow siempre me gustaron La primera estaba buena, me encanta el humor boludo que le pone a sus pelis, aca cambiaron de director...espero este buena


22/04/2017 09:58:20 am 
       0                           
siclon


Miembro desde: 22/04/2017

Threads abiertos: 0
Mensajes: 1  
Subtítulos subidos: 0
Threads Favoritos: 0



donde encuentro los subtitulo al español


22/04/2017 11:36:07 am 
       1                           
varnak


Miembro desde:
el principio!

Threads abiertos: 187
Mensajes: 13557  
Subtítulos subidos: 19
Threads Favoritos: 0





Los chinos tienen 7000 versiones, esta estuvo buena, la anterior esta todavia no la vi.
Igual, hasta que haya subtitulos...mi nivel de chino da para hola y gracias.


24/04/2017 05:18:58 pm 
       0                           
Yamakasi


Miembro desde: 30/09/2007

Threads abiertos: 18
Mensajes: 803  
Subtítulos subidos: 7
Threads Favoritos: 0





Beelzebul escribió:
Chilito07 escribió: Gracias por el aviso, pero paso ¿Viste la primera? Es genial...


No veo al protagonista de la primera ni los otros demonios. No se si mirar esta con tanto cambio que han hecho.


29/07/2017 04:07:22 am 
       0                           
leadrain


Miembro desde: 14/03/2005

Threads abiertos: 0
Mensajes: 2  
Subtítulos subidos: 0
Threads Favoritos: 0



Y los links?


29/07/2017 04:15:46 am 
       0                           
leadrain escribió:
Y los links?


Ahí está el nombre del archivo... buscalo con Google.

Journey.to.the.West.Demon.Chapter.2017.1080p.WEB-DL.DD5.1.H264-TAiCHi.mkv

Subtítulos




west

1