Login

  

Split (2016) WEB-DL





Thread creado por cgarcia1097 el 04/04/2017 01:15:21 am. Lecturas: 1,653. Mensajes: 8. Favoritos: 1





04/04/2017 01:15:21 am 
       16                           
Split.2016.1080p.WEB-DL.DD5.1.H264-FGT



Video
ID : 1
Format : AVC
Format/Info : Advanced Video Codec
Format profile : High@L4
Format settings, CABAC : Yes
Format settings, ReFrames : 5 frames
Codec ID : V_MPEG4/ISO/AVC
Duration : 1h 57mn
Bit rate : 4 428 Kbps
Width : 1 916 pixels
Height : 800 pixels
Display aspect ratio : 2.40:1
Frame rate mode : Constant
Frame rate : 23.976 (24000/1001) fps
Color space : YUV
Chroma subsampling : 4:2:0
Bit depth : 8 bits
Scan type : Progressive
Bits/(PixelFrame) : 0.120
Stream size : 3.62 GiB (90%)
Title : Split.2016.1080p.WEB-DL.DD5.1.H264-FGT
Language : English
Default : Yes
Forced : No
Color range : Limited
Color primaries : BT.709
Transfer characteristics : BT.709
Matrix coefficients : BT.709

Audio
ID : 2
Format : AC-3
Format/Info : Audio Coding 3
Mode extension : CM (complete main)
Format settings, Endianness : Big
Codec ID : A_AC3
Duration : 1h 57mn
Bit rate mode : Constant
Bit rate : 384 Kbps
Channel(s) : 6 channels
Channel positions : Front: L C R, Side: L R, LFE
Sampling rate : 48.0 KHz
Frame rate : 31.250 fps (1536 spf)
Compression mode : Lossy
Stream size : 322 MiB (8%)
Title : Split.2016.1080p.WEB-DL.DD5.1.H264-FGT
Language : English
Default : Yes
Forced : No

Text
ID : 3
Format : UTF-8
Codec ID : S_TEXT/UTF8
Codec ID/Info : UTF-8 Plain Text
Language : English
Default : Yes
Forced : No

Menu
00:00:00.000 : en:1
00:06:09.452 : en:2
00:14:20.025 : en:3
00:20:50.373 : en:4
00:24:15.536 : en:5
00:28:38.048 : en:6
00:35:48.978 : en:7
00:42:36.385 : en:8
00:49:07.067 : en:9
00:54:10.412 : en:10
01:00:25.495 : en:11
01:06:23.561 : en:12
01:12:32.221 : en:13
01:19:36.770 : en:14
01:25:26.828 : en:15
01:29:17.558 : en:16
01:34:09.224 : en:17
01:40:46.996 : en:18
01:47:41.285 : en:19
01:52:27.738 : en:20






1616 16



04/04/2017 03:03:22 am 
       0                           
La esperaba, gracias.




04/04/2017 05:58:17 am 
       1                           
Agregado a Últimos Estrenos - Abril. Saludos.


04/04/2017 09:09:55 am 
       1                           
Jjojojo gracias!


04/04/2017 10:30:46 am 
       3                           
Muy buen película. James McAvoy se luce en el papel.


04/04/2017 07:27:09 pm 
       0                           
woodyallen


Miembro desde: 17/01/2015

Threads abiertos: 9
Mensajes: 497  
Subtítulos subidos: 0
Threads Favoritos: 0





Me bajé esta versión
split.2016.720p.web.dl.hevc.x265.rmteam
Se ve muy bien y pesa solo 390 mb.

Si no viste una película de Shyamalan anterior (no puedo decir cual para no quitar sorpresa) no vas a poder disfrutar de la pelicula al 100%...


04/04/2017 09:51:41 pm 
       0                           
Gracias por el audio latino Alancito


05/04/2017 02:59:18 pm 
      -1                           
woodyallen escribió:
Me bajé esta versión split.2016.720p.web.dl.hevc.x265.rmteamSe ve muy bien y pesa solo 390 mb. Si no viste una película de Shyamalan anterior no puedo decir cual para no quitar sorpresa no vas a poder disfrutar de la pelicula al 100%...


Hay cada comentario boludo, no se si querías meter spoilers o de verdad eres lento.




split

1