Login

  

Allied (2016) WEB-DL





Thread creado por meny212 el 14/02/2017 12:22:55 am. Lecturas: 1,787. Mensajes: 6. Favoritos: 1





14/02/2017 12:22:55 am 
       6                           
Allied (2016)

Esperan subpack y audio latino ALANSITO APURATE que yo tambien pago mi membresia



Allied.2016.1080p.WEB-DL.DD5.1.H264-FGT
www.imdb.com/title/tt3640424/

Años 40. Segunda Guerra Mundial. Max Vatan (Brad Pitt) es un agente de inteligencia del bando aliado destinado en Marruecos, que debe realizar una peligrosa misión en el norte de África. Mientras cumple con su cometido, conoce en Casablanca a Marianne Beausejour (Marion Cotillard), una agente de la Resistencia francesa de quien se enamora. Al principio todo es una simple misión. Sin embargo, el tiempo vuelve a juntarlos en Londres, y el amor florece entre ellos, hasta el punto de que deciden formar una familia. Su vida parece perfecta hasta que la Guerra comienza a poner a prueba su relación.

Los superiores de Vatan le comunican que Marianne podría ser en realidad una agente doble al servicio de los nazis. Será entonces cuando, dolido por el reciente descubrimiento, empiece a sospechar y lleve a cabo una investigación para descubrir la verdad sobre su esposa. ¿Tendrá que matarla si efectivamente es así?











Video
ID : 1
Format : AVC
Format/Info : Advanced Video Codec
Format profile : High@L4
Format settings, CABAC : Yes
Format settings, ReFrames : 5 frames
Codec ID : V_MPEG4/ISO/AVC
Duration : 2h 5mn
Bit rate : 4 458 Kbps
Width : 1 916 pixels
Height : 796 pixels
Display aspect ratio : 2.40:1
Frame rate mode : Constant
Frame rate : 24.000 fps
Color space : YUV
Chroma subsampling : 4:2:0
Bit depth : 8 bits
Scan type : Progressive
Bits/(PixelFrame) : 0.122
Stream size : 3.89 GiB (90%)
Title : Allied.2016.1080p.WEB-DL.DD5.1.H264-FGT
Language : English
Default : Yes
Forced : No
Color range : Limited
Color primaries : BT.709
Transfer characteristics : BT.709
Matrix coefficients : BT.709

Audio
ID : 2
Format : AC-3
Format/Info : Audio Coding 3
Mode extension : CM (complete main)
Format settings, Endianness : Big
Codec ID : A_AC3
Duration : 2h 5mn
Bit rate mode : Constant
Bit rate : 384 Kbps
Channel(s) : 6 channels
Channel positions : Front: L C R, Side: L R, LFE
Sampling rate : 48.0 KHz
Frame rate : 31.250 fps (1536 spf)
Compression mode : Lossy
Stream size : 343 MiB (8%)
Title : Allied.2016.1080p.WEB-DL.DD5.1.H264-FGT
Language : English
Default : Yes
Forced : No

Text
ID : 3
Format : UTF-8
Codec ID : S_TEXT/UTF8
Codec ID/Info : UTF-8 Plain Text
Language : English
Default : Yes
Forced : No
66 6



14/02/2017 01:37:34 am 
       3                           
Papelillio


Miembro desde: 18/06/2016

Threads abiertos: 83
Mensajes: 282  
Subtítulos subidos: 8
Threads Favoritos: 0





Latino 5.1 del WEB-DL Méxicano por skype
Latino 2.0 del WEB-DL EEUU (este lo lanzan mañana al público)


14/02/2017 08:08:50 am 
       2                           
Agregado a Últimos Estrenos - Febrero (3). Saludos.


15/02/2017 06:39:25 am 
       2                           
Salió el Blu-ray... Muy buena la película, le tenía poca fe, pero me dejó satisfecho.

Puntuación: 7/10.



15/02/2017 09:46:18 am 
       1                           
rodriftones


Miembro desde: 19/11/2008

Threads abiertos: 264
Mensajes: 1758  
Subtítulos subidos: 0
Threads Favoritos: 0





Mr. y Ms. Smiths 2 !


18/02/2017 08:31:31 pm 
       1                           
OMORAGA


Miembro desde: 23/05/2013

Threads abiertos: 23
Mensajes: 2144  
Subtítulos subidos: 0
Threads Favoritos: 189








allied

1