Login

  

Nocturnal Animals (2016) Bluray





Thread creado por meny212 el 09/02/2017 02:46:31 pm. Lecturas: 1,842. Mensajes: 6. Favoritos: 1





09/02/2017 02:46:31 pm 
       7                           
Nocturnal Animals 2016





Narra la historia de Susan Morrow, una mujer que tras abandonar a su primer marido, un escritor inédito, vive ahora con un médico. De repente recibe un paquete en el que descubre la primera novela de su ex, quien en una nota le pide que por favor la lea, pues ella siempre fue su mejor crítica. Susan lo hace y a medida que se sumerge en la narración, la propia novela acaba olvidando la historia principal para acabar hechizada por este relato dentro del relato, síntoma evidente de que a la nueva vida de Susan le falta algo y deberá explorar en su pasado para saber qué es lo que le impide seguir adelante






Drama, Thriller IMDB: 7.7/10


Nocturnal.Animals.2016.720p.BluRay.x264.DTS-HDC






Video
ID : 1
Format : AVC
Format/Info : Advanced Video Codec
Format profile : High@L4.1
Format settings, CABAC : Yes
Format settings, ReFrames : 12 frames
Codec ID : V_MPEG4/ISO/AVC
Duration : 1h 56mn
Bit rate : 6 000 Kbps
Width : 1 280 pixels
Height : 528 pixels
Display aspect ratio : 2.40:1
Frame rate mode : Constant
Frame rate : 23.976 (24000/1001) fps
Color space : YUV
Chroma subsampling : 4:2:0
Bit depth : 8 bits
Scan type : Progressive
Bits/(PixelFrame) : 0.370
Stream size : 4.75 GiB (78%)
Title : Nocturnal.Animals.2016.720p.BluRay.x264.DTS-HDC
Writing library : x264 core 148 r2665kMod a01e339
Encoding settings : cabac=1 / ref=12 / deblock=1:-3:-3 / analyse=0x3:0x133 / me=umh / subme=11 / psy=1 / fade_compensate=0.00 / psy_rd=1.05:0.00 / mixed_ref=1 / me_range=32 / chroma_me=1 / trellis=2 / 8x8dct=1 / cqm=0 / deadzone=21,11 / fast_pskip=0 / chroma_qp_offset=-2 / threads=12 / lookahead_threads=2 / sliced_threads=0 / nr=0 / decimate=0 / interlaced=0 / bluray_compat=0 / constrained_intra=0 / fgo=0 / bframes=8 / b_pyramid=2 / b_adapt=2 / b_bias=0 / direct=3 / weightb=1 / open_gop=0 / weightp=2 / keyint=240 / keyint_min=24 / scenecut=40 / intra_refresh=0 / rc=2pass / mbtree=0 / bitrate=6000 / ratetol=1.0 / qcomp=0.70 / qpmin=0 / qpmax=69 / qpstep=4 / cplxblur=20.0 / qblur=0.5 / ip_ratio=1.20 / pb_ratio=1.20 / aq=3:0.85
Language : English
Default : Yes
Forced : No

Audio
ID : 2
Format : DTS
Format/Info : Digital Theater Systems
Mode : 16
Format settings, Endianness : Big
Codec ID : A_DTS
Duration : 1h 56mn
Bit rate mode : Constant
Bit rate : 1 509 Kbps
Channel(s) : 6 channels
Channel positions : Front: L C R, Side: L R, LFE
Sampling rate : 48.0 KHz
Frame rate : 93.750 fps (512 spf)
Bit depth : 24 bits
Compression mode : Lossy
Stream size : 1.22 GiB (20%)
Title : Nocturnal.Animals.2016.720p.BluRay.x264.DTS-HDC
Language : English
Default : Yes
Forced : No

Text
ID : 3
Format : UTF-8
Codec ID : S_TEXT/UTF8
Codec ID/Info : UTF-8 Plain Text
Language : English
Default : Yes
Forced : No
77 7



10/02/2017 08:51:34 am 
       1                           
Agregado a Últimos Estrenos - Febrero (2). Saludos.


10/02/2017 09:44:05 am 
       0                           
Por el nombre, he pasado semanas pensando que era una peli porno...


10/02/2017 07:17:36 pm 
       0                           
OMORAGA


Miembro desde: 23/05/2013

Threads abiertos: 23
Mensajes: 2139  
Subtítulos subidos: 0
Threads Favoritos: 189





Para como comprarla y volver a verla.


28/02/2017 06:21:38 am 
       0                           
admiralackbar


Miembro desde: 28/02/2017

Threads abiertos: 0
Mensajes: 15  
Subtítulos subidos: 0
Threads Favoritos: 0



Mírenla! Además, la hermosura de Amy Adams hace un papel excelente! Muy mal que no haya recibido ninguna nominación en los Oscars...


01/03/2017 07:42:52 pm 
       0                           
bijou84


Miembro desde: 15/01/2007

Threads abiertos: 47
Mensajes: 28770  
Subtítulos subidos: 0
Threads Favoritos: 0





Excelente pelicula, con una fotografía perfecta y grandes actuaciones.




animals

1