Login

  

Hacksaw Ridge (2016) WEB-DL





Thread creado por Papelillio el 07/02/2017 12:39:01 am. Lecturas: 931. Mensajes: 6. Favoritos: 0





07/02/2017 12:39:01 am 
       14                           
Papelillio


Miembro desde: 18/06/2016

Threads abiertos: 83
Mensajes: 284  
Subtítulos subidos: 8
Threads Favoritos: 0







Hacksaw.Ridge.2016.1080p.WEB-DL.DD5.1.H264-FGT

Video
ID : 1
Format : AVC
Format/Info : Advanced Video Codec
Format profile : High@L4
Format settings, CABAC : Yes
Format settings, ReFrames : 5 frames
Codec ID : V_MPEG4/ISO/AVC
Duration : 2h 19mn
Bit rate : 4 433 Kbps
Width : 1 912 pixels
Height : 788 pixels
Display aspect ratio : 2.40:1
Frame rate mode : Constant
Frame rate : 23.976 (24000/1001) fps
Color space : YUV
Chroma subsampling : 4:2:0
Bit depth : 8 bits
Scan type : Progressive
Bits/(PixelFrame) : 0.123
Stream size : 4.31 GiB (90%)
Title : Hacksaw.Ridge.2016.1080p.WEB-DL.DD5.1.H264-FGT
Language : English
Default : Yes
Forced : No
Color range : Limited
Color primaries : BT.709
Transfer characteristics : BT.709
Matrix coefficients : BT.709

Audio
ID : 2
Format : AC-3
Format/Info : Audio Coding 3
Mode extension : CM (complete main)
Format settings, Endianness : Big
Codec ID : A_AC3
Duration : 2h 19mn
Bit rate mode : Constant
Bit rate : 384 Kbps
Channel(s) : 6 channels
Channel positions : Front: L C R, Side: L R, LFE
Sampling rate : 48.0 KHz
Frame rate : 31.250 fps (1536 spf)
Compression mode : Lossy
Stream size : 383 MiB (8%)
Title : Hacksaw.Ridge.2016.1080p.WEB-DL.DD5.1.H264-FGT
Language : English
Default : Yes
Forced : No

Text
ID : 3
Format : UTF-8
Codec ID : S_TEXT/UTF8
Codec ID/Info : UTF-8 Plain Text
Language : English
Default : Yes
Forced : No

Menu
00:00:00.000 : en:1
00:03:01.000 : en:2
00:14:11.000 : en:3
00:26:35.000 : en:4
00:40:05.000 : en:5
00:50:39.000 : en:6
01:03:36.000 : en:7
01:10:14.000 : en:8
01:24:46.000 : en:9
01:39:03.000 : en:10
01:48:34.000 : en:11
01:59:49.000 : en:12
02:11:06.000 : en:13
1414 14



07/02/2017 04:30:42 am 
       0                           
Volviste wey... bajando.


07/02/2017 07:30:45 am 
       0                           
melusineh


Miembro desde: 10/10/2014

Threads abiertos: 101
Mensajes: 7458  
Subtítulos subidos: 0
Threads Favoritos: 49





Muchas gracias! Bajando.



07/02/2017 01:10:01 pm 
       0                           
GrosoyGroso


Miembro desde: 11/02/2012

Threads abiertos: 67
Mensajes: 605  
Subtítulos subidos: 244
Threads Favoritos: 0





web-dl le cambia lo colores


07/02/2017 07:48:27 pm 
       1                           
Hacksaw.Ridge.2016.720p.BluRay.x264-SPARKS




settings

1