Login

  

Arrival 2016 DVDScr XVID AC3 HQ Hive-CM8





Thread creado por Papelillio el 15/01/2017 08:45:50 pm. Lecturas: 1,336. Mensajes: 8. Favoritos: 0





15/01/2017 08:45:50 pm 
       3                           
Papelillio


Miembro desde: 18/06/2016

Threads abiertos: 83
Mensajes: 284  
Subtítulos subidos: 8
Threads Favoritos: 0







Arrival.2016.DVDScr.XVID.AC3.HQ.Hive-CM8

Thx Hive

CM8 Doing It Right The First Time

Source: DVD-R9 Thanks to DRs

Notes:
Another HQ release, free for the public now.
This one is the proper, yes from full source not from the one out theire

Encode:
was quite a lot of work, movie is dark, colours shift from scene to scene
adding brightness for whole movie didnt work,and because of the colours i had to split the movie in parts
and treat every scene as needed,for optimal quality, result is great
removed all watermarks from video and audio, safety first.
enjoy


Video: 720x304 @bitrate ~1700 2pass
Audio: English AC3 5.1
Sample: yes included

PS: star wars dvd-9 anyone? animation for kids?


www.imdb.com/title/tt2543164/


General
Complete name : Arrival.2016.DVDScr.XVID.AC3.HQ.Hive-CM8.avi
Format : AVI
Format/Info : Audio Video Interleave
File size : 1.85 GiB
Duration : 1h 56mn
Overall bit rate : 2 275 Kbps
Writing application : Nandub v1.0rc2
Writing library : Nandub build 1853/release

Video
ID : 0
Format : MPEG-4 Visual
Format profile : Advanced Simple@L5
Format settings, BVOP : 2
Format settings, QPel : Yes
Format settings, GMC : No warppoints
Format settings, Matrix : Default (H.263)
Muxing mode : Packed bitstream
Codec ID : XVID
Codec ID/Hint : XviD
Duration : 1h 56mn
Bit rate : 2 010 Kbps
Width : 720 pixels
Height : 304 pixels
Display aspect ratio : 2.35:1
Frame rate : 23.976 fps
Color space : YUV
Chroma subsampling : 4:2:0
Bit depth : 8 bits
Scan type : Progressive
Compression mode : Lossy
Bits/(PixelFrame) : 0.383
Stream size : 1.63 GiB (88%)
Writing library : XviD 1.2.1 (UTC 2008-12-04)

Audio
ID : 1
Format : AC-3
Format/Info : Audio Coding 3
Mode extension : CM (complete main)
Format settings, Endianness : Big
Codec ID : 2000
Duration : 1h 56mn
Bit rate mode : Constant
Bit rate : 256 Kbps
Channel(s) : 6 channels
Channel positions : Front: L C R, Side: L R, LFE
Sampling rate : 48.0 KHz
Bit depth : 16 bits
Compression mode : Lossy
Stream size : 213 MiB (11%)
Alignment : Split accross interleaves
Interleave, duration : 42 ms (1.00 video frame)
Interleave, preload duration : 500 ms


Screens











33 3



15/01/2017 09:13:09 pm 
       0                           
No soy muy partidario de los Scr, pero las versiones de CM8 se ven bien.




15/01/2017 11:38:25 pm 
       0                           
Papelillio


Miembro desde: 18/06/2016

Threads abiertos: 83
Mensajes: 284  
Subtítulos subidos: 8
Threads Favoritos: 0





Arrival (2016)
Versión propia. Incrustados los subtítulos al video (Gracias tamabin)
Utilizando como fuente: Arrival.2016.DVDScr.XVID.AC3.HQ.Hive-CM8
Nota: Agregada franjas negras para que los subtítulos no quedaran en el medio de la pantalla.
Descargar: docs.google.com/uc?id=0B68jNtXK3aV0amNJVG1wTWNaY2c&export=download
Contraseña: Papelillio







Ultima edición por Papelillio el 22/01/2017 09:53:14 , editado 2veces


22/01/2017 08:07:30 am 
       0                           
mongider


Miembro desde: 28/12/2013

Threads abiertos: 0
Mensajes: 11  
Subtítulos subidos: 0
Threads Favoritos: 0



Hola, Papelillio. Soy nuevo aquí. Llevo siguiendo tu valiosa labor unas semanas. He disfrutado la descarga directa de tu ´´Hacksaw ridge´´ con subs recolocados admirablemente. Desafortunadamente, tu link de descarga directa a ´´Arrival´´ me falla: Not Found
Error 404. Si fueras tan amable de mirar si existe la posibilidad de arreglarlo.

Muchas gracias por todo.


22/01/2017 09:20:23 am 
       0                           
Papelillio


Miembro desde: 18/06/2016

Threads abiertos: 83
Mensajes: 284  
Subtítulos subidos: 8
Threads Favoritos: 0





mongider escribió:
Hola, Papelillio. Soy nuevo aquí. Llevo siguiendo tu valiosa labor unas semanas. He disfrutado la descarga directa de tu Hacksaw ridge con subs recolocados admirablemente. Desafortunadamente, tu link de descarga directa a Arrival me falla: Not FoundError 404. Si fueras tan amable de mirar si existe la posibilidad de arreglarlo. Muchas gracias por todo.

Resubida.


22/01/2017 12:13:51 pm 
       0                           
mongider


Miembro desde: 28/12/2013

Threads abiertos: 0
Mensajes: 11  
Subtítulos subidos: 0
Threads Favoritos: 0



¡ Genial ! Ahora no me da error. Me pongo a la breve tarea ...

Muchas gracias, papelillio, por tu valiosa ayuda.


23/01/2017 10:26:01 am 
       0                           
mongider


Miembro desde: 28/12/2013

Threads abiertos: 0
Mensajes: 11  
Subtítulos subidos: 0
Threads Favoritos: 0



Hola, papelillio. ¿ Una pista para la contraseña del rar ?

Diez intentos y nada ... Mayúsculas o minúsculas ?

Facilita, please, como esta adivinanza de mi más tierna infancia: Blanca por dentro, verde por fuera, si quieres que te lo diga, espera ….


24/01/2017 03:26:32 am 
       0                           
mongider


Miembro desde: 28/12/2013

Threads abiertos: 0
Mensajes: 11  
Subtítulos subidos: 0
Threads Favoritos: 0



Hola, Papelillio. AVI extraído con éxito. La primera P con mayúscula y el resto con minúsculas.

La pista la doy con el final del libro de Umberto Eco ´´El nombre de la rosa´´: ´´Stat rosa pristina nomine, nomina nuda tenemus´´




from

1