Login

  

Estación Zombie (2016) Blu-ray





Thread creado por Papelillio el 16/12/2016 10:28:30 am. Lecturas: 754. Mensajes: 8. Favoritos: 0





16/12/2016 10:28:30 am 
       5                           
Papelillio


Miembro desde: 18/06/2016

Threads abiertos: 83
Mensajes: 284  
Subtítulos subidos: 8
Threads Favoritos: 0







Train.to.Busan.2016.KOREAN.1080p.BluRay.x264.DTS-FGT

Video
ID : 1
Format : AVC
Format/Info : Advanced Video Codec
Format profile : High@L4.1
Format settings, CABAC : Yes
Format settings, ReFrames : 4 frames
Codec ID : V_MPEG4/ISO/AVC
Duration : 1h 58mn
Bit rate : 8 900 Kbps
Width : 1 920 pixels
Height : 1 040 pixels
Display aspect ratio : 1.85:1
Frame rate mode : Constant
Frame rate : 23.976 (24000/1001) fps
Color space : YUV
Chroma subsampling : 4:2:0
Bit depth : 8 bits
Scan type : Progressive
Bits/(PixelFrame) : 0.186
Stream size : 7.17 GiB (84%)
Title : Train.to.Busan.2016.KOREAN.1080p.BluRay.x264.DTS-FGT
Writing library : x264 core 148 r2705 3f5ed56
Encoding settings : cabac=1 / ref=4 / deblock=1:0:0 / analyse=0x3:0x113 / me=umh / subme=8 / psy=1 / psy_rd=1.00:0.00 / mixed_ref=1 / me_range=16 / chroma_me=1 / trellis=1 / 8x8dct=1 / cqm=0 / deadzone=21,11 / fast_pskip=1 / chroma_qp_offset=-2 / threads=24 / lookahead_threads=4 / sliced_threads=0 / nr=0 / decimate=1 / interlaced=0 / bluray_compat=0 / constrained_intra=0 / bframes=3 / b_pyramid=2 / b_adapt=2 / b_bias=0 / direct=3 / weightb=1 / open_gop=0 / weightp=2 / keyint=240 / keyint_min=24 / scenecut=40 / intra_refresh=0 / rc_lookahead=50 / rc=2pass / mbtree=1 / bitrate=8900 / ratetol=1.0 / qcomp=0.60 / qpmin=0 / qpmax=69 / qpstep=4 / cplxblur=20.0 / qblur=0.5 / ip_ratio=1.40 / aq=1:1.00
Language : English
Default : Yes
Forced : No

Audio
ID : 2
Format : DTS
Format/Info : Digital Theater Systems
Mode : 16
Format settings, Endianness : Big
Codec ID : A_DTS
Duration : 1h 58mn
Bit rate mode : Constant
Bit rate : 1 509 Kbps
Channel(s) : 6 channels
Channel positions : Front: L C R, Side: L R, LFE
Sampling rate : 48.0 KHz
Frame rate : 93.750 fps (512 spf)
Bit depth : 24 bits
Compression mode : Lossy
Stream size : 1.25 GiB (14%)
Title : Train.to.Busan.2016.KOREAN.1080p.BluRay.x264.DTS-FGT
Language : Korean
Default : Yes
Forced : No

Text
ID : 3
Format : UTF-8
Codec ID : S_TEXT/UTF8
Codec ID/Info : UTF-8 Plain Text
Language : English
Default : Yes
Forced : Yes

Menu
00:00:00.000 : en:00:00:00.000
00:11:02.537 : en:00:11:02.537
00:19:35.216 : en:00:19:35.216
00:29:38.443 : en:00:29:38.443
00:39:13.518 : en:00:39:13.518
00:51:01.850 : en:00:51:01.850
00:59:30.025 : en:00:59:30.025
01:08:15.091 : en:01:08:15.091
01:20:56.060 : en:01:20:56.060
01:29:58.268 : en:01:29:58.268
01:38:03.544 : en:01:38:03.544
01:49:07.583 : en:01:49:07.583









FUENTE: BD50 Francés que no trae ni audio ni sub spanish.
55 5



16/12/2016 10:43:28 am 
       1                           
Morsita


Miembro desde: 14/01/2016

Threads abiertos: 474
Mensajes: 3487  
Subtítulos subidos: 0
Threads Favoritos: 2





train to busan es, pareces los cines de aca que le ponen el nombre que les parece

muy buena la peli, una version yanki explota


16/12/2016 10:47:38 am 
       1                           
Papelillio


Miembro desde: 18/06/2016

Threads abiertos: 83
Mensajes: 284  
Subtítulos subidos: 8
Threads Favoritos: 0





Morsita escribió:
train to busan es, pareces los cines de aca que le ponen el nombre que les parecemuy buena la peli, una version yanki explota


Su título original, en koreano, es ´´Busanhaeng´´. No se lo quise poner, díficil que alguien entendiera.



17/12/2016 01:37:27 am 
       0                           
ramma07


Miembro desde: 11/12/2007

Threads abiertos: 0
Mensajes: 16689  
Subtítulos subidos: 0
Threads Favoritos: 0



Morsita escribió:
train to busan es, pareces los cines de aca que le ponen el nombre que les parecemuy buena la peli, una version yanki explota


No entiendo la queja, el título en español se relaciona con la película, si no tuviera nada que ver, entendería la queja, pero va perfecto para el usuario común.


17/12/2016 09:21:52 am 
       0                           
Morsita


Miembro desde: 14/01/2016

Threads abiertos: 474
Mensajes: 3487  
Subtítulos subidos: 0
Threads Favoritos: 2





Aleutian57 escribió:
Si es asiatica, ya es mala por si sola, nada que ver aqui.


no entendes nada


17/12/2016 09:34:37 am 
       0                           
ramma07


Miembro desde: 11/12/2007

Threads abiertos: 0
Mensajes: 16689  
Subtítulos subidos: 0
Threads Favoritos: 0



Morsita escribió:
Aleutian57 escribió: Si es asiatica, ya es mala por si sola, nada que ver aqui.no entendes nada


Dejalo, solo viene a molestar nomás, un boludo


17/12/2016 11:27:39 am 
       0                           
TheStronger


Miembro desde: 31/10/2013

Threads abiertos: 1
Mensajes: 672  
Subtítulos subidos: 1
Threads Favoritos: 0





La vi hace cuestion de 2-3 meses, de un hd-rip. Francamente mantiene un buen ritmo, aunque no es tan explicita, es recomendada




blu-ray

1