Login

  

Sully (2016) BluRay





Thread creado por cgarcia1097 el 03/12/2016 12:28:52 am. Lecturas: 2,327. Mensajes: 13. Favoritos: 0





03/12/2016 12:28:52 am 
       13                           
Sully.2016.720p.BluRay.x264-SPARKS



Sully.2016.720p.BluRay.x264-SPARKS

Video
ID : 1
Format : AVC
Format/Info : Advanced Video Codec
Format profile : High@L4.1
Format settings, CABAC : Yes
Format settings, ReFrames : 5 frames
Codec ID : V_MPEG4/ISO/AVC
Duration : 1h 35mn
Bit rate : 5 887 Kbps
Width : 1 280 pixels
Height : 536 pixels
Display aspect ratio : 2.40:1
Frame rate mode : Constant
Frame rate : 23.976 fps
Color space : YUV
Chroma subsampling : 4:2:0
Bit depth : 8 bits
Scan type : Progressive
Bits/(PixelFrame) : 0.358
Stream size : 3.94 GiB (90%)
Writing library : x264 core 148 r2705 3f5ed56
Encoding settings : cabac=1 / ref=5 / deblock=1:0:0 / analyse=0x3:0x133 / me=umh / subme=7 / psy=1 / psy_rd=1.00:0.00 / mixed_ref=1 / me_range=16 / chroma_me=1 / trellis=1 / 8x8dct=1 / cqm=0 / deadzone=21,11 / fast_pskip=0 / chroma_qp_offset=-2 / threads=17 / lookahead_threads=2 / sliced_threads=0 / nr=0 / decimate=1 / interlaced=0 / bluray_compat=0 / constrained_intra=0 / bframes=3 / b_pyramid=2 / b_adapt=1 / b_bias=0 / direct=1 / weightb=1 / open_gop=0 / weightp=2 / keyint=250 / keyint_min=23 / scenecut=40 / intra_refresh=0 / rc_lookahead=40 / rc=2pass / mbtree=1 / bitrate=5887 / ratetol=1.0 / qcomp=0.60 / qpmin=0 / qpmax=69 / qpstep=4 / cplxblur=20.0 / qblur=0.5 / ip_ratio=1.40 / aq=1:1.00
Language : English
Default : Yes
Forced : No

Audio
ID : 2
Format : AC-3
Format/Info : Audio Coding 3
Mode extension : CM (complete main)
Format settings, Endianness : Big
Codec ID : A_AC3
Duration : 1h 35mn
Bit rate mode : Constant
Bit rate : 640 Kbps
Channel(s) : 6 channels
Channel positions : Front: L C R, Side: L R, LFE
Sampling rate : 48.0 KHz
Frame rate : 31.250 fps (1536 spf)
Compression mode : Lossy
Stream size : 439 MiB (10%)
Language : English
Default : Yes
Forced : No







RELEASES
Quality Codec Name S. L. Size
BRRip 720 AC3 xvid Sully.2016.720p.BRRip.XviD.AC3-RARBG 11 12 2.67 GB
BRRip - AC3 xvid Sully.2016.BRRip.XviD.AC3-RARBG 12 29 1.27 GB
BRRip - MP3 xvid Sully.2016.BRRip.XviD.MP3-RARBG 13 24 1.10 GB
BRRip - - x264 Sully.2016.BDRip.x264-SPARKS 33 31 521.93 MB

IMDB: tt3263904
Ranking: 7.7 /10 de 42,961 users
Plot: La historia de Chesley Sullenberger, un piloto estadounidense que se convirtió en un héroe después de aterrizar su avión dañado en el río Hudson con el fin de salvar a los pasajeros del vuelo y la tripulación.
Genero: Biografia, Drama

Trailer:



Trailer Subtitulado:

1313 13



03/12/2016 12:45:16 am 
       3                           
La espera valió la pena, y fue poca.


03/12/2016 01:12:03 am 
       2                           
Papelillio


Miembro desde: 18/06/2016

Threads abiertos: 83
Mensajes: 282  
Subtítulos subidos: 8
Threads Favoritos: 0





Al parecer, lamentablemente, sin escenas IMAX (Está película fue filmada completamente con cámaras IMAX)


03/12/2016 01:42:46 am 
       5                           
Beelzebul escribió:
La espera valió la pena, y fue poca.


Subs de la Maestra TamaBin:


03/12/2016 01:42:55 am 
       3                           



03/12/2016 07:27:31 am 
       4                           
Agregado a Últimos estrenos - Diciembre. Saludos.


03/12/2016 09:38:45 am 
       3                           
Mínimo una dominación al Oscar para Clint y Tom. Ambos se lucen en esta película.


03/12/2016 11:08:36 am 
       5                           
walkingdedo


Miembro desde: 03/03/2015

Threads abiertos: 64
Mensajes: 2130  
Subtítulos subidos: 0
Threads Favoritos: 0










03/12/2016 02:56:58 pm 
       1                           
katto70


Miembro desde: 22/12/2003

Threads abiertos: 7
Mensajes: 907  
Subtítulos subidos: 16
Threads Favoritos: 0





Esperando el audio latno


03/12/2016 09:46:31 pm 
       2                           
E - X - C - E - L - E - N - T - E película... y muy buenos subtítulos de TaMaBin.

10/10 para los dos.



06/12/2016 02:59:58 pm 
       2                           
poseidonhdcom


Miembro desde: 03/10/2016

Threads abiertos: 2
Mensajes: 60  
Subtítulos subidos: 0
Threads Favoritos: 0





Para el que no quiera descargarla les dejo la version online 1080 Latino final y Sub

Online

Saludos a todos


03/01/2017 01:26:07 pm 
       0                           
No se, se me hizo muy aburrida. Pero los fanboys ven a Clint Eastwood y ya flashean. Es un kpo Clint, pero esta peli me colma la paciencia de lo lenta que es. Una peli puede ser lenta, pero retro alimenta con el ambiente, el suspenso, la tensión, esta no tiene eso. Hasta diría que la de Denzel Washington es mejor.




sully

1