Login

  

Star Trek Beyond 2016 BluRay





Thread creado por clarko el 17/10/2016 08:39:54 pm. Lecturas: 1,616. Mensajes: 5. Favoritos: 2





17/10/2016 08:39:54 pm 
       9                           
clarko


Miembro desde: 22/12/2003

Threads abiertos: 293
Mensajes: 12612  
Subtítulos subidos: 0
Threads Favoritos: 313





Star.Trek.Beyond.2016.720p.BluRay.H264.AAC-RARBG




Sinopsis: El USS Enterprise, la nave insignia de la Flota Estelar, vuelve a surcar el universo para proteger la Tierra y el resto de planetas aliados en nombre de la Federación Unida de Planetas. Liderada por el capitán James T. Kirk (Chris Pine), la tripulación del crucero de batalla tendrá que enfrentarse a nuevos peligros que acabarán con su tranquilidad.

Video
ID : 1
Format : AVC
Format/Info : Advanced Video Codec
Format profile : High@L4.1
Format settings, CABAC : Yes
Format settings, ReFrames : 4 frames
Codec ID : avc1
Codec ID/Info : Advanced Video Coding
Duration : 2h 2mn
Bit rate : 1 500 Kbps
Width : 1 280 pixels
Height : 536 pixels
Display aspect ratio : 2.40:1
Frame rate mode : Constant
Frame rate : 23.976 (23976/1000) fps
Color space : YUV
Chroma subsampling : 4:2:0
Bit depth : 8 bits
Scan type : Progressive
Bits/(PixelFrame) : 0.091
Stream size : 1.28 GiB (87%)
Writing library : x264 core 148 r2597M e86f3a1
Encoding settings : cabac=1 / ref=4 / deblock=1:-1:-1 / analyse=0x3:0x113 / me=umh / subme=9 / psy=1 / psy_rd=1.00:0.15 / mixed_ref=1 / me_range=24 / chroma_me=1 / trellis=2 / 8x8dct=1 / cqm=0 / deadzone=21,11 / fast_pskip=1 / chroma_qp_offset=-3 / threads=32 / lookahead_threads=4 / sliced_threads=0 / nr=0 / decimate=1 / interlaced=0 / bluray_compat=0 / constrained_intra=0 / bframes=3 / b_pyramid=2 / b_adapt=2 / b_bias=0 / direct=3 / weightb=1 / open_gop=0 / weightp=2 / keyint=250 / keyint_min=25 / scenecut=40 / intra_refresh=0 / rc_lookahead=50 / rc=2pass / mbtree=1 / bitrate=1500 / ratetol=1.0 / qcomp=0.60 / qpmin=0 / qpmax=69 / qpstep=4 / cplxblur=20.0 / qblur=0.5 / vbv_maxrate=31250 / vbv_bufsize=31250 / nal_hrd=none / filler=0 / ip_ratio=1.40 / aq=3:1.00
Encoded date : UTC 2016-10-18 01:19:45
Tagged date : UTC 2016-10-18 01:19:45

Audio
ID : 2
Format : AAC
Format/Info : Advanced Audio Codec
Format profile : LC
Codec ID : 40
Duration : 2h 2mn
Duration_LastFrame : 32ms
Bit rate mode : Constant
Bit rate : 224 Kbps
Channel(s) : 2 channels
Channel(s)_Original : 6 channels
Channel positions : Front: L C R, Side: L R, LFE
Sampling rate : 48.0 KHz
Frame rate : 46.875 fps (1024 spf)
Compression mode : Lossy
Stream size : 196 MiB (13%)
Language : English
Default : Yes
Alternate group : 1
Encoded date : UTC 2016-10-18 01:19:45
Tagged date : UTC 2016-10-18 01:19:45








Star.Trek.Beyond.2016.BRRip.XviD.AC3-RARBG
Star Trek Beyond 2016 720p BluRay x264-SPARKS
Star.Trek.Beyond.2016.BDRip.x264-SPARKS
99 9



17/10/2016 11:39:13 pm 
       2                           
Agregado a Últimos estrenos - Octubre (3). Saludos.


18/10/2016 08:52:36 am 
       0                           
alexxf


Miembro desde: 12/2/2004

Threads abiertos: 15
Mensajes: 295  
Subtítulos subidos: 19
Threads Favoritos: 0





Esperaré la versión SBS.


20/10/2016 10:33:27 pm 
       0                           
chorizoxxx


Miembro desde: 31/05/2012

Threads abiertos: 0
Mensajes: 7  
Subtítulos subidos: 0
Threads Favoritos: 0



aer la baje en avi calidad de mierda




codec

1