Login

  

Spotlight (2015) 1080p WEB-DL





Thread creado por LillosKing el 02/02/2016 01:13:00 am. Lecturas: 2,247. Mensajes: 4. Favoritos: 0





02/02/2016 01:13:00 am 
       4                           


Spotlight.2015.1080p.WEB-DL.DD5.1.H264-RARBG

Video
ID : 1
Format : AVC
Format/Info : Advanced Video Codec
Format profile : High@L4
Format settings, CABAC : Yes
Format settings, ReFrames : 4 frames
Codec ID : V_MPEG4/ISO/AVC
Duration : 2h 9mn
Bit rate : 4 933 Kbps
Width : 1 916 pixels
Height : 1 032 pixels
Display aspect ratio : 1.85:1
Frame rate mode : Constant
Frame rate : 23.976 fps
Color space : YUV
Chroma subsampling : 4:2:0
Bit depth : 8 bits
Scan type : Progressive
Bits/(PixelFrame) : 0.104
Stream size : 4.45 GiB (91%)
Title : Spotlight.2015.1080p.WEB-DL.DD5.1.H264-RARBG
Language : English
Default : Yes
Forced : No
Color range : Limited
Color primaries : BT.709
Transfer characteristics : BT.709
Matrix coefficients : BT.709

Audio
ID : 2
Format : AC-3
Format/Info : Audio Coding 3
Mode extension : CM (complete main)
Format settings, Endianness : Big
Codec ID : A_AC3
Duration : 2h 9mn
Bit rate mode : Constant
Bit rate : 384 Kbps
Channel(s) : 6 channels
Channel positions : Front: L C R, Side: L R, LFE
Sampling rate : 48.0 KHz
Frame rate : 31.250 fps (1536 spf)
Compression mode : Lossy
Stream size : 354 MiB (7%)
Title : Spotlight.2015.1080p.WEB-DL.DD5.1.H264-RARBG
Language : English
Default : Yes
Forced : No

Text
ID : 3
Format : UTF-8
Codec ID : S_TEXT/UTF8
Codec ID/Info : UTF-8 Plain Text
Language : English
Default : Yes
Forced : No

Menu
00:00:00.000 : en:1
00:08:22.000 : en:2
00:14:32.000 : en:3
00:21:53.000 : en:4
00:27:40.000 : en:5
00:35:50.000 : en:6
00:45:40.000 : en:7
00:49:14.000 : en:8
00:53:23.000 : en:9
00:59:38.000 : en:10
01:05:31.000 : en:11
01:10:49.000 : en:12
01:17:32.000 : en:13
01:23:32.000 : en:14
01:30:05.000 : en:15
01:34:29.000 : en:16
01:42:54.000 : en:17
01:50:59.000 : en:18
01:55:52.000 : en:19
02:01:31.000 : en:20
44 4



02/02/2016 01:44:46 am 
       2                           
Agregado a Últimos estrenos - Febrero. Saludos.


02/02/2016 11:22:47 am 
       1                           
rocabos


Miembro desde: 25/11/2007

Threads abiertos: 62
Mensajes: 1326  
Subtítulos subidos: 112
Threads Favoritos: 0





Ya no se esfuerzan en poner capturas, sinopsis o trailer...Así sea un titulo conocido no está de más poner esta información.


01/04/2016 07:55:46 am 
       0                           
Ya salio latino




spotlight

3