Login

  

The 33 (2015) BluRay





Thread creado por cgarcia1097 el 29/01/2016 09:37:51 pm. Lecturas: 1,031. Mensajes: 7. Favoritos: 0





29/01/2016 09:37:51 pm 
       3                           
The.33.2015.1080p.BluRay.x264-Replica




The.33.2015.1080p.BluRay.x264-Replica
Video
ID : 1
Format : AVC
Format/Info : Advanced Video Codec
Format profile : High@L4.1
Format settings, CABAC : Yes
Format settings, ReFrames : 5 frames
Codec ID : V_MPEG4/ISO/AVC
Duration : 2h 7mn
Bit rate : 9 571 Kbps
Width : 1 920 pixels
Height : 800 pixels
Display aspect ratio : 2.40:1
Frame rate mode : Constant
Frame rate : 23.976 (24000/1001) fps
Color space : YUV
Chroma subsampling : 4:2:0
Bit depth : 8 bits
Scan type : Progressive
Bits/(PixelFrame) : 0.260
Stream size : 8.31 GiB (84%)
Writing library : x264 core 148 r2665 a01e339
Encoding settings : cabac=1 / ref=5 / deblock=1:0:0 / analyse=0x3:0x113 / me=umh / subme=8 / psy=1 / psy_rd=1.00:0.00 / mixed_ref=1 / me_range=16 / chroma_me=1 / trellis=1 / 8x8dct=1 / cqm=0 / deadzone=21,11 / fast_pskip=0 / chroma_qp_offset=-2 / threads=24 / lookahead_threads=4 / sliced_threads=0 / nr=0 / decimate=1 / interlaced=0 / bluray_compat=0 / constrained_intra=0 / bframes=3 / b_pyramid=2 / b_adapt=2 / b_bias=0 / direct=3 / weightb=1 / open_gop=0 / weightp=2 / keyint=250 / keyint_min=23 / scenecut=40 / intra_refresh=0 / rc_lookahead=50 / rc=2pass / mbtree=1 / bitrate=9571 / ratetol=1.0 / qcomp=0.60 / qpmin=0 / qpmax=69 / qpstep=4 / cplxblur=20.0 / qblur=0.5 / ip_ratio=1.40 / aq=1:1.00
Language : English
Default : Yes
Forced : No

Audio
ID : 2
Format : DTS
Format/Info : Digital Theater Systems
Mode : 16
Format settings, Endianness : Big
Codec ID : A_DTS
Duration : 2h 7mn
Bit rate mode : Constant
Bit rate : 1 509 Kbps
Channel(s) : 6 channels
Channel positions : Front: L C R, Side: L R, LFE
Sampling rate : 48.0 KHz
Frame rate : 93.750 fps (512 spf)
Bit depth : 24 bits
Compression mode : Lossy
Stream size : 1.34 GiB (14%)
Language : English
Default : Yes
Forced : No

Text #1
ID : 3
Format : UTF-8
Codec ID : S_TEXT/UTF8
Codec ID/Info : UTF-8 Plain Text
Title : English regular
Default : No
Forced : No

Text #2
ID : 4
Format : UTF-8
Codec ID : S_TEXT/UTF8
Codec ID/Info : UTF-8 Plain Text
Title : English sdh
Default : No
Forced : No



IMDB: www.imdb.com/title/tt2006295/
Rating: 7, 0/10 from 10, 271 users
Genero : Biography, Drama, History
Plot: Con base en el caso de la vida real, cuando una mina de oro y cobre colapsa, atrapa a 33 mineros bajo tierra durante 69 días.

Trailer:



Subtitulos en español latino extraidos del archivo sup aqui: The 33 2015 1080p BluRay x264-Replica[rarbg] y otros similares
33 3



29/01/2016 10:08:41 pm 
      -1                           
elfrutero


Miembro desde: 01/03/2011

Threads abiertos: 23
Mensajes: 2577  
Subtítulos subidos: 0
Threads Favoritos: 0








29/01/2016 11:49:19 pm 
       3                           
Jamás voy a volver a ver una película con Antonio Banderas.


30/01/2016 03:20:12 am 
       0                           
Agregado a Últimos estrenos - Enero (4). Saludos.


30/01/2016 11:06:37 am 
       0                           
MilDones


Miembro desde: 18/03/2015

Threads abiertos: 113
Mensajes: 1403  
Subtítulos subidos: 2
Threads Favoritos: 0





A mi me gustó El cuerpo con Antonio Banderas


31/01/2016 05:42:14 am 
       0                           



31/01/2016 07:55:39 am 
       4                           
MilDones escribió:
A mi me gustó El cuerpo con Antonio Banderas



A vos te gusta el cuerpo DE Antonio Banderas.




bluray

1