Login

  

Jarhead 3 The Siege (2016) UNRATED HDRip





Thread creado por cgarcia1097 el 29/01/2016 01:24:46 pm. Lecturas: 1,291. Mensajes: 3. Favoritos: 0





29/01/2016 01:24:46 pm 
       2                           
Jarhead.3.The.Siege.2016.UNRATED.HDRip.XviD.AC3-EVO




Jarhead.3.The.Siege.2016.UNRATED.HDRip.XviD.AC3-EVO

Video
ID : 0
Format : MPEG-4 Visual
Format profile : Advanced Simple@L5
Format settings, BVOP : 2
Format settings, QPel : No
Format settings, GMC : No warppoints
Format settings, Matrix : Default (H.263)
Muxing mode : Packed bitstream
Codec ID : XVID
Codec ID/Hint : XviD
Duration : 1h 29mn
Bit rate : 1 822 Kbps
Width : 720 pixels
Height : 304 pixels
Display aspect ratio : 2.35:1
Frame rate : 23.976 (23976/1000) fps
Color space : YUV
Chroma subsampling : 4:2:0
Bit depth : 8 bits
Scan type : Progressive
Compression mode : Lossy
Bits/(PixelFrame) : 0.347
Stream size : 1.14 GiB (82%)
Writing library : XviD 66

Audio
ID : 1
Format : AC-3
Format/Info : Audio Coding 3
Mode extension : CM (complete main)
Format settings, Endianness : Big
Codec ID : 2000
Duration : 1h 29mn
Bit rate mode : Constant
Bit rate : 384 Kbps
Channel(s) : 6 channels
Channel positions : Front: L C R, Side: L R, LFE
Sampling rate : 48.0 KHz
Frame rate : 31.250 fps (1536 spf)
Compression mode : Lossy
Stream size : 246 MiB (17%)
Alignment : Aligned on interleaves
Interleave, duration : 42 ms (1.00 video frame)
Interleave, preload duration : 512 ms














www.imdb.com/title/tt4616014/
Rating: Waiting to be rated
Genero: Action, Drama, War
Plot: Un grupo de infantes de marina debe proteger a una embajada de Estados Unidos en el Medio Oriente cuando repentinamente se ve envuelta bajo el ataque de las fuerzas enemigas.

Trailer:

22 2



29/01/2016 03:11:38 pm 
       1                           
Agregado a Últimos estrenos - Enero (4). Saludos.


30/01/2016 10:01:19 pm 
       1                           
animals2


Miembro desde: 10/07/2005

Threads abiertos: 20
Mensajes: 61  
Subtítulos subidos: 10
Threads Favoritos: 0





pude bajar los subtitulos funcionan de 10

Ultima edición por animals2 el 31/01/2016 09:20:55 , editado 1vez




jarhead

1