Login

  

Breakdown (2016) HDRip





Thread creado por cgarcia1097 el 28/01/2016 05:19:12 pm. Lecturas: 2,359. Mensajes: 4. Favoritos: 0





28/01/2016 05:19:12 pm 
       2                           
Breakdown.2016.HDRip.XviD.AC3-EVO




Breakdown.2016.HDRip.XviD.AC3-EVO
Video
ID : 0
Format : MPEG-4 Visual
Format profile : Advanced Simple@L5
Format settings, BVOP : 2
Format settings, QPel : No
Format settings, GMC : No warppoints
Format settings, Matrix : Default (H.263)
Muxing mode : Packed bitstream
Codec ID : XVID
Codec ID/Hint : XviD
Duration : 1h 50mn
Bit rate : 1 409 Kbps
Width : 720 pixels
Height : 304 pixels
Display aspect ratio : 2.35:1
Frame rate : 24.000 fps
Color space : YUV
Chroma subsampling : 4:2:0
Bit depth : 8 bits
Scan type : Progressive
Compression mode : Lossy
Bits/(PixelFrame) : 0.268
Stream size : 1.09 GiB (78%)
Writing library : XviD 66

Audio
ID : 1
Format : AC-3
Format/Info : Audio Coding 3
Mode extension : CM (complete main)
Format settings, Endianness : Big
Codec ID : 2000
Duration : 1h 50mn
Bit rate mode : Constant
Bit rate : 384 Kbps
Channel(s) : 6 channels
Channel positions : Front: L C R, Side: L R, LFE
Sampling rate : 48.0 KHz
Frame rate : 31.250 fps (1536 spf)
Compression mode : Lossy
Stream size : 303 MiB (21%)
Alignment : Aligned on interleaves
Interleave, duration : 42 ms (1.00 video frame)
Interleave, preload duration : 512 ms













IMDB: www.imdb.com/title/tt3381610/
Rating: 5,8/10 from 204 users
Genero : Thriller
Plot: Un asesino a sueldo profesional, atormentado por visiones de su pasado violento, se sale de control. Su obra comprometida cuando alcanza el punto de ruptura, se ve obligado a defender a su familia de sus empleadores despiadados.

Trailer:

22 2



28/01/2016 06:21:06 pm 
       3                           
Agregado a Últimos estrenos - Enero (4). Saludos.


28/01/2016 10:55:30 pm 
       3                           
Nope


27/03/2016 08:19:54 pm 
       0                           
Nilda1607


Miembro desde: 26/09/2006

Threads abiertos: 1
Mensajes: 12  
Subtítulos subidos: 0
Threads Favoritos: 0





Y donde puedo encontrar el subtitulo para esta pelicula??




breakdown

3