Login

  

Hide and Seek (2014) BluRay





Thread creado por cgarcia1097 el 28/01/2016 05:09:50 pm. Lecturas: 2,115. Mensajes: 4. Favoritos: 0





28/01/2016 05:09:50 pm 
       3                           
Hide.and.Seek.2014 1080p BluRay X264




Hide.and.Seek.2014.1080p.BluRay.x264-VALUE
Video
ID : 1
Format : AVC
Format/Info : Advanced Video Codec
Format profile : High@L4.1
Format settings, CABAC : Yes
Format settings, ReFrames : 4 frames
Codec ID : V_MPEG4/ISO/AVC
Duration : 1h 23mn
Bit rate : 9 685 Kbps
Width : 1 920 pixels
Height : 1 080 pixels
Display aspect ratio : 16:9
Frame rate mode : Constant
Frame rate : 24.000 fps
Color space : YUV
Chroma subsampling : 4:2:0
Bit depth : 8 bits
Scan type : Progressive
Bits/(PixelFrame) : 0.195
Stream size : 5.54 GiB (85%)
Writing library : x264 core 148 r2665 a01e339
Encoding settings : cabac=1 / ref=4 / deblock=1:1:1 / analyse=0x3:0x133 / me=umh / subme=8 / psy=1 / psy_rd=1.00:0.00 / mixed_ref=1 / me_range=16 / chroma_me=1 / trellis=1 / 8x8dct=1 / cqm=0 / deadzone=21,11 / fast_pskip=0 / chroma_qp_offset=-2 / threads=18 / lookahead_threads=3 / sliced_threads=0 / nr=0 / decimate=1 / interlaced=0 / bluray_compat=0 / constrained_intra=0 / bframes=3 / b_pyramid=2 / b_adapt=2 / b_bias=0 / direct=3 / weightb=1 / open_gop=0 / weightp=2 / keyint=240 / keyint_min=24 / scenecut=40 / intra_refresh=0 / rc_lookahead=50 / rc=2pass / mbtree=1 / bitrate=9685 / ratetol=1.0 / qcomp=0.60 / qpmin=0 / qpmax=69 / qpstep=4 / cplxblur=20.0 / qblur=0.5 / ip_ratio=1.40 / aq=1:1.00
Language : English
Default : Yes
Forced : No

Audio
ID : 2
Format : DTS
Format/Info : Digital Theater Systems
Mode : 16
Format settings, Endianness : Big
Codec ID : A_DTS
Duration : 1h 23mn
Bit rate mode : Constant
Bit rate : 1 509 Kbps
Channel(s) : 6 channels
Channel positions : Front: L C R, Side: L R, LFE
Sampling rate : 48.0 KHz
Frame rate : 93.750 fps (512 spf)
Bit depth : 24 bits
Compression mode : Lossy
Stream size : 905 MiB (13%)
Language : English
Default : Yes
Forced : No



IMDB: imdb.com/title/tt2723176/
Rating: 5.2/10 from 161 users
Genero : Drama, Romance
Plot: Cuatro jóvenes frágiles huyen de Londres para iniciar una utopía no convencional, la creación de un mundo de fantasía que les abruma.

Trailer:

33 3



28/01/2016 06:21:26 pm 
       2                           
Agregado a Últimos estrenos - Enero (4). Saludos.


28/01/2016 10:59:11 pm 
       5                           
¿Hasta cuándo van a seguir usando ´´Hide and Seek´´ como título de película?

Hide and Seek (1972)

Hide and Seek (2005)

Hide & Seek (2010)

Hide and Seek (2013)


29/01/2016 09:41:56 am 
      -1                           
Matt89


Miembro desde: 18/01/2013

Threads abiertos: 452
Mensajes: 17531  
Subtítulos subidos: 0
Threads Favoritos: 0





Beelzebul escribió:
¿Hasta cuándo van a seguir usando Hide and Seek como título de película?Hide and Seek 1972Hide and Seek 2005Hide & Seek 2010Hide and Seek 2013


Poco Hide y mucho Seek.




bluray

1