Login

  

Hyena Road (2015) BluRay





Thread creado por cgarcia1097 el 28/01/2016 04:56:37 pm. Lecturas: 1,645. Mensajes: 6. Favoritos: 0





28/01/2016 04:56:37 pm 
       4                           
Hyena.Road.2015.1080p.BluRay




Hyena.Road.2015.1080p.BluRay.x264-NODLABS

Video
ID : 1
Format : AVC
Format/Info : Advanced Video Codec
Format profile : High@L4.1
Format settings, CABAC : Yes
Format settings, ReFrames : 4 frames
Codec ID : V_MPEG4/ISO/AVC
Duration : 2h 0mn
Bit rate : 8 922 Kbps
Width : 1 920 pixels
Height : 1 040 pixels
Display aspect ratio : 1.85:1
Frame rate mode : Constant
Frame rate : 23.976 (24000/1001) fps
Color space : YUV
Chroma subsampling : 4:2:0
Bit depth : 8 bits
Scan type : Progressive
Bits/(PixelFrame) : 0.186
Stream size : 7.30 GiB (84%)
Writing library : x264 core 148 r2638 7599210
Encoding settings : cabac=1 / ref=4 / deblock=1:-3:-3 / analyse=0x3:0x113 / me=umh / subme=8 / psy=1 / psy_rd=1.00:0.00 / mixed_ref=1 / me_range=16 / chroma_me=1 / trellis=1 / 8x8dct=1 / cqm=0 / deadzone=21,11 / fast_pskip=1 / chroma_qp_offset=-2 / threads=24 / lookahead_threads=4 / sliced_threads=0 / nr=0 / decimate=1 / interlaced=0 / bluray_compat=0 / constrained_intra=0 / bframes=3 / b_pyramid=2 / b_adapt=2 / b_bias=0 / direct=3 / weightb=1 / open_gop=0 / weightp=2 / keyint=240 / keyint_min=24 / scenecut=40 / intra_refresh=0 / rc_lookahead=50 / rc=2pass / mbtree=1 / bitrate=8922 / ratetol=1.0 / qcomp=0.60 / qpmin=0 / qpmax=69 / qpstep=4 / cplxblur=20.0 / qblur=0.5 / ip_ratio=1.40 / aq=1:1.00
Language : English
Default : Yes
Forced : No
Statistics Tags Issue : no_variable_data 1970-01-01 00:00:00 / no_variable_data 2010-02-22 21:41:29
FromStats_BitRate : 8913861
FromStats_Duration : 02:00:00.944000000
FromStats_FrameCount : 172650
FromStats_StreamSize : 8023527236

Audio
ID : 2
Format : DTS
Format/Info : Digital Theater Systems
Mode : 16
Format settings, Endianness : Big
Codec ID : A_DTS
Duration : 2h 0mn
Bit rate mode : Constant
Bit rate : 1 509 Kbps
Channel(s) : 6 channels
Channel positions : Front: L C R, Side: L R, LFE
Sampling rate : 48.0 KHz
Frame rate : 93.750 fps (512 spf)
Bit depth : 24 bits
Compression mode : Lossy
Stream size : 1.26 GiB (14%)
Language : English
Default : Yes
Forced : No
Statistics Tags Issue : no_variable_data 1970-01-01 00:00:00 / no_variable_data 2010-02-22 21:41:29
FromStats_BitRate : 1508999
FromStats_Duration : 02:00:00.950000000
FromStats_FrameCount : 675089
FromStats_StreamSize : 1358279068

Text #1
ID : 3
Format : UTF-8
Codec ID : S_TEXT/UTF8
Codec ID/Info : UTF-8 Plain Text
Language : English
Default : No
Forced : No
Statistics Tags Issue : no_variable_data 1970-01-01 00:00:00 / no_variable_data 2010-02-22 21:41:29
FromStats_BitRate : 58
FromStats_Duration : 01:58:57.546000000
FromStats_FrameCount : 1497
FromStats_StreamSize : 52412

Text #2
ID : 4
Format : UTF-8
Codec ID : S_TEXT/UTF8
Codec ID/Info : UTF-8 Plain Text
Title : SDH
Language : English
Default : No
Forced : No
Statistics Tags Issue : no_variable_data 1970-01-01 00:00:00 / no_variable_data 2010-02-22 21:41:29
FromStats_BitRate : 64
FromStats_Duration : 01:59:33.957000000
FromStats_FrameCount : 1712
FromStats_StreamSize : 57464













IMDB: imdb.com/title/tt4034452/
Rating: 6,5/10 from 403 users
Genero : Drama, War
Plot: Tres hombres diferentes, tres mundos diferentes, tres guerras diferentes - todos se sitúan en la intersección de la guerra moderna - un oscuro mundo de la moral fluido donde no todo es como parece.

Trailer:



Releases:

Name............................................................................................................................Size
Hyena.Road.2015.BDRip.x264-NODLABS.................................................959.10 MB
Hyena.Road.2015.1080p.BluRay.x264-NODLABS.........................................8.75 GB
Hyena.Road.2015.1080p.BluRay.H264.AAC-RARBG....................................2.29 GB
Hyena.Road.2015.720p.BluRay.H264.AAC-RARBG......................................1.45 GB
Hyena.Road.2015.720p.BRRip.XviD.AC3-RARBG.........................................3.52 GB
Hyena.Road.2015.BRRip.XviD.AC3-RARBG..................................................1.67 GB
Hyena.Road.2015.BRRip.XviD.MP3-RARBG..................................................1.51 GB
Hyena.Road.2015.720p.BluRay.x264.DD5.1-RARBG.....................................4.32 GB
Hyena.Road.2015.720p.WEB-DL.XviD.AC3-RARBG......................................3.52 GB
Hyena.Road.2015.WEB-DL.XviD.MP3-RARBG...............................................1.51 GB
44 4



28/01/2016 06:21:45 pm 
       2                           
Agregado a Últimos estrenos - Enero (4). Saludos.


28/01/2016 11:01:15 pm 
       2                           
Mmmmm, puede ser...


29/06/2016 01:08:12 am 
       1                           
Muy buena esta película-


29/06/2016 12:28:41 pm 
       1                           
Beelzebul escribió:
Muy buena esta película-


Hombre, gracias por la referencia, sinceramente y a decir verdad no me he tomado el tiempo de verla, pero siendo que cuento con tu recomendación le dedicare un tiempo, gracias por la evaluación. saludos


01/07/2016 01:59:15 am 
       0                           
cgarcia1097 escribió:
Beelzebul escribió: Muy buena esta película- Hombre, gracias por la referencia, sinceramente y a decir verdad no me he tomado el tiempo de verla, pero siendo que cuento con tu recomendación le dedicare un tiempo, gracias por la evaluación. saludos


AQUI MI OPINION




bluray

1