Login

  

Crimson Peak (2015) BluRay





Thread creado por cgarcia1097 el 27/01/2016 11:25:15 pm. Lecturas: 1,451. Mensajes: 3. Favoritos: 0





27/01/2016 11:25:15 pm 
       2                           
Crimson.Peak.2015 BluRay x264




Crimson.Peak.2015.720p.BluRay.x264-SPARKS
Release.Date: 28.01.2016
Video.......: X264 5079Kbps
Frame.Rate..: 23.976
Resolution..: 1280x688
Audio.......: DTS 1509Kbps 6ch
Language....: English
Length......: 1h 58mn
Source......: Retail BluRay
Size........: 5594MB
Subtitles...: English

IMDb: www.imdb.com/title/tt2554274

Video
ID : 1
Format : AVC
Format/Info : Advanced Video Codec
Format profile : High@L4.1
Format settings, CABAC : Yes
Format settings, ReFrames : 5 frames
Codec ID : V_MPEG4/ISO/AVC
Duration : 1h 58mn
Bit rate : 5 079 Kbps
Width : 1 280 pixels
Height : 688 pixels
Display aspect ratio : 1.85:1
Frame rate mode : Constant
Frame rate : 23.976 fps
Color space : YUV
Chroma subsampling : 4:2:0
Bit depth : 8 bits
Scan type : Progressive
Bits/(PixelFrame) : 0.241
Stream size : 4.21 GiB (77%)
Writing library : x264 core 148 r2665 a01e339
Encoding settings : cabac=1 / ref=5 / deblock=1:0:0 / analyse=0x3:0x133 / me=umh / subme=7 / psy=1 / psy_rd=1.00:0.00 / mixed_ref=1 / me_range=16 / chroma_me=1 / trellis=1 / 8x8dct=1 / cqm=0 / deadzone=21,11 / fast_pskip=0 / chroma_qp_offset=-2 / threads=12 / lookahead_threads=2 / sliced_threads=0 / nr=0 / decimate=1 / interlaced=0 / bluray_compat=0 / constrained_intra=0 / bframes=3 / b_pyramid=2 / b_adapt=1 / b_bias=0 / direct=1 / weightb=1 / open_gop=0 / weightp=2 / keyint=250 / keyint_min=23 / scenecut=40 / intra_refresh=0 / rc_lookahead=40 / rc=2pass / mbtree=1 / bitrate=5079 / ratetol=1.0 / qcomp=0.60 / qpmin=0 / qpmax=69 / qpstep=4 / cplxblur=20.0 / qblur=0.5 / ip_ratio=1.40 / aq=1:1.00
Language : English
Default : Yes
Forced : No

Audio
ID : 2
Format : DTS
Format/Info : Digital Theater Systems
Mode : 16
Format settings, Endianness : Big
Codec ID : A_DTS
Duration : 1h 58mn
Bit rate mode : Constant
Bit rate : 1 509 Kbps
Channel(s) : 6 channels
Channel positions : Front: L C R, Side: L R, LFE
Sampling rate : 48.0 KHz
Frame rate : 93.750 fps (512 spf)
Bit depth : 24 bits
Compression mode : Lossy
Stream size : 1.25 GiB (23%)
Language : English
Default : Yes
Forced : No




IMDb: www.imdb.com/title/tt2554274
Rating :6,7/10 de 52.760 usuarios
Genero : Drama, Fantasy, Horror
Plot: A raíz de una tragedia familiar, un autor aspirante se debate entre el amor por su amigo de la infancia y la tentación de un forastero misterioso. Tratando de escapar de los fantasmas de su pasado, ella se deja llevar a una casa que respira, sangra - y recuerda.

Trailer :




22 2



27/01/2016 11:59:26 pm 
       1                           
Agregado a Últimos estrenos - Enero (4). Saludos.


30/01/2016 12:00:21 pm 
       1                           
PETERPAGE


Miembro desde: 11/04/2014

Threads abiertos: 3
Mensajes: 6  
Subtítulos subidos: 1
Threads Favoritos: 0





previsiva sin embargo los enfoques y escenario de la trama le hace interesante y te mantendrá en tensión!




bluray

1