Login

  

Jeruzalem (2015) BluRay





Thread creado por cgarcia1097 el 26/01/2016 02:41:42 pm. Lecturas: 1,629. Mensajes: 2. Favoritos: 0





26/01/2016 02:41:42 pm 
       1                           
Jeruzalem.2015.1080p.BluRay.x264




Jeruzalem.2015.1080p.BluRay.x264.DTS-FGT
Video
ID : 1
Format : AVC
Format/Info : Advanced Video Codec
Format profile : High@L4.1
Format settings, CABAC : Yes
Format settings, ReFrames : 5 frames
Codec ID : V_MPEG4/ISO/AVC
Duration : 1h 34mn
Bit rate : 7 147 Kbps
Width : 1 920 pixels
Height : 792 pixels
Display aspect ratio : 2.40:1
Frame rate mode : Constant
Frame rate : 23.976 (24000/1001) fps
Color space : YUV
Chroma subsampling : 4:2:0
Bit depth : 8 bits
Scan type : Progressive
Bits/(PixelFrame) : 0.196
Stream size : 4.70 GiB (81%)
Writing library : x264 core 148 r2638 7599210
Encoding settings : cabac=1 / ref=5 / deblock=1:-1:-1 / analyse=0x3:0x113 / me=umh / subme=7 / psy=1 / psy_rd=1.00:0.15 / mixed_ref=1 / me_range=16 / chroma_me=1 / trellis=1 / 8x8dct=1 / cqm=0 / deadzone=21,11 / fast_pskip=0 / chroma_qp_offset=-3 / threads=18 / lookahead_threads=3 / sliced_threads=0 / nr=0 / decimate=1 / interlaced=0 / bluray_compat=0 / constrained_intra=0 / bframes=3 / b_pyramid=2 / b_adapt=1 / b_bias=0 / direct=1 / weightb=1 / open_gop=0 / weightp=2 / keyint=250 / keyint_min=23 / scenecut=40 / intra_refresh=0 / rc_lookahead=40 / rc=crf / mbtree=1 / crf=20.0 / qcomp=0.60 / qpmin=0 / qpmax=69 / qpstep=4 / ip_ratio=1.40 / aq=1:1.00
Language : English
Default : Yes
Forced : No

Audio
ID : 2
Format : DTS
Format/Info : Digital Theater Systems
Mode : 16
Format settings, Endianness : Big
Codec ID : A_DTS
Duration : 1h 34mn
Bit rate mode : Constant
Bit rate : 1 509 Kbps
Channel(s) : 6 channels
Channel positions : Front: L C R, Side: L R, LFE
Sampling rate : 48.0 KHz
Frame rate : 93.750 fps (512 spf)
Bit depth : 24 bits
Compression mode : Lossy
Stream size : 1 017 MiB (17%)
Language : English
Default : No
Forced : No














IMDB: www.imdb.com/title/tt4552524/
Rating : 4,8/10 from 735 users Metascore: 52/100
Genero : Horror
Plot: Cuando una pareja de adultos jóvenes estadounidenses vuela a Israel para visitar la ciudad de Jerusalén, una pesadilla bíblica cae sobre la ciudad

Trailer:
11 1



27/01/2016 05:02:58 am 
       1                           
Agregado a Últimos estrenos - Enero (4). Saludos.




jeruzalem

1