Login

  

45 Years 2015





Thread creado por Syranus el 02/01/2016 06:25:33 pm. Lecturas: 3,691. Mensajes: 11. Favoritos: 1





02/01/2016 06:25:33 pm 
       14                           


Título original
45 Years
Año
2015
Duración
93 min.
País
[Reino Unido] Reino Unido
Director
Andrew Haigh
Guión
Andrew Haigh (Relato: David Constantine)
Fotografía
Lol Crawley
Reparto
Charlotte Rampling, Tom Courtenay, Geraldine James, Dolly Wells, David Sibley, Sam Alexander, Richard Cunningham, Rufus Wright, Hannah Chalmers, Camille Ucan
Productora
The Bureau
Género
Drama. Romance Drama romántico. Vejez
Web oficial
www.45yearsfilm.com/
Sinopsis
Falta sólo una semana para el 45º aniversario de su boda, y Kate Mercer está muy ocupada con los preparativos de la fiesta. Pero entonces llega una carta dirigida a su marido, en la que se le notifica que, en los glaciares de los Alpes suizos, ha aparecido congelado el cadáver de su primer amor. (FILMAFFINITY)

Premios
2015: Festival de Berlín: Mejor actor (Courtenay) y actriz (Rampling)
2015: Premios del Cine Europeo: Mejor actriz (Charlotte Rampling)
2015: Festival Internacional de Valladolid - Seminci: Mejor actriz (Charlotte Rampling)
2015: National Board of Review (NBR): Mejores películas independientes del año
2015: Críticos de Los Angeles: Mejor actriz (Charlotte Rampling)
2015: Satellite Awards: Nominada a Mejor actriz (Charlotte Rampling)
Mostrar 2 premios más





Video
ID : 1
Format : AVC
Format/Info : Advanced Video Codec
Format profile : High@L4.1
Format settings, CABAC : Yes
Format settings, ReFrames : 4 frames
Codec ID : V_MPEG4/ISO/AVC
Duration : 1h 35mn
Bit rate : 9 094 Kbps
Width : 1 920 pixels
Height : 1 040 pixels
Display aspect ratio : 1.85:1
Frame rate mode : Constant
Frame rate : 23.976 (24000/1001) fps
Color space : YUV
Chroma subsampling : 4:2:0
Bit depth : 8 bits
Scan type : Progressive
Bits/(PixelFrame) : 0.190
Stream size : 5.92 GiB (90%)
Writing library : x264 core 148 r2638 7599210
Encoding settings : cabac=1 / ref=4 / deblock=1:-3:-3 / analyse=0x3:0x113 / me=umh / subme=8 / psy=1 / psy_rd=1.00:0.00 / mixed_ref=1 / me_range=16 / chroma_me=1 / trellis=1 / 8x8dct=1 / cqm=0 / deadzone=21,11 / fast_pskip=1 / chroma_qp_offset=-2 / threads=12 / lookahead_threads=2 / sliced_threads=0 / nr=0 / decimate=1 / interlaced=0 / bluray_compat=0 / constrained_intra=0 / bframes=3 / b_pyramid=2 / b_adapt=2 / b_bias=0 / direct=3 / weightb=1 / open_gop=0 / weightp=2 / keyint=240 / keyint_min=24 / scenecut=40 / intra_refresh=0 / rc_lookahead=50 / rc=2pass / mbtree=1 / bitrate=9094 / ratetol=1.0 / qcomp=0.60 / qpmin=0 / qpmax=69 / qpstep=4 / cplxblur=20.0 / qblur=0.5 / ip_ratio=1.40 / aq=1:1.00
Language : English
Default : Yes
Forced : No

Audio
ID : 2
Format : DTS
Format/Info : Digital Theater Systems
Mode : 16
Format settings, Endianness : Big
Codec ID : A_DTS
Duration : 1h 35mn
Bit rate mode : Constant
Bit rate : 768 Kbps
Channel(s) : 6 channels
Channel positions : Front: L C R, Side: L R, LFE
Sampling rate : 48.0 KHz
Frame rate : 93.750 fps (512 spf)
Bit depth : 24 bits
Compression mode : Lossy
Stream size : 523 MiB (8%)
Language : English
Default : Yes
Forced : No

Text #1
ID : 3
Format : UTF-8
Codec ID : S_TEXT/UTF8
Codec ID/Info : UTF-8 Plain Text
Language : English
Default : No
Forced : No

Text #2
ID : 4
Format : UTF-8
Codec ID : S_TEXT/UTF8
Codec ID/Info : UTF-8 Plain Text
Title : SDH
Language : English
Default : No
Forced : No

Menu
00:00:00.000 : en:00:00:00.000
00:10:00.850 : en:00:10:00.850
00:16:25.568 : en:00:16:25.568
00:25:34.825 : en:00:25:34.825
00:32:12.013 : en:00:32:12.013
00:40:38.353 : en:00:40:38.353
00:52:13.088 : en:00:52:13.088
01:02:22.030 : en:01:02:22.030
01:06:56.679 : en:01:06:56.679
01:14:25.544 : en:01:14:25.544
01:20:19.398 : en:01:20:19.398
01:31:06.378 : en:01:31:06.378

45.Years.2015.LIMITED.1080p.BluRay.X264-AMIABLE
1414 14



02/01/2016 06:28:01 pm 
       6                           

02/01/2016 07:37:46 pm 
       3                           
Argenis998


Miembro desde: 21/12/2015

Threads abiertos: 0
Mensajes: 6  
Subtítulos subidos: 6
Threads Favoritos: 0



La crítica la ha amado, hay que verla. Voy bajando esta: 45.Years.2015.1080p.BluRay.H264.AAC-RARBG


02/01/2016 07:38:45 pm 
       0                           
Argenis998 escribió:
La crítica la ha amado, hay que verla. Voy bajando esta: 45.Years.2015.1080p.BluRay.H264.AAC-RARBG


Si, fijate la lista de premios.


02/01/2016 10:43:36 pm 
       2                           
por las imagenes y el argumento me imagino que es un programon!! si tu primera alternativa es el suicidio.. dicen que si compras el original viene con una bala de regalo ..


03/01/2016 08:23:42 am 
       0                           
girion


Miembro desde: 15/11/2013

Threads abiertos: 12
Mensajes: 2952  
Subtítulos subidos: 0
Threads Favoritos: 0





drspook escribió:
por las imagenes y el argumento me imagino que es un programon!! si tu primera alternativa es el suicidio.. dicen que si compras el original viene con una bala de regalo ..


Es para gente que tiene demasiada alegria en la vida.


03/01/2016 09:40:58 pm 
       0                           
AKA ´´Trolleada por un Cadáver´´


04/01/2016 08:19:06 am 
       1                           
Excelente Syramus!!!...una jota cinematográfica!!! , bajando 5.Years.2015.LIMITED.1080p.BluRay.X264-AMIABLE de 6,57 Gb y esperando unos excelentes subs!!!


04/01/2016 08:51:41 am 
       1                           
Caprica escribió:
Excelente Syramus!!!...una jota cinematográfica!!! , bajando 5.Years.2015.LIMITED.1080p.BluRay.X264-AMIABLE de 6,57 Gb y esperando unos excelentes subs!!!


Ya los subieron en ingles.

Subs en ingles


05/01/2016 03:46:55 pm 
       2                           
Por el trailer debe ser de esas películas que te emocionan hasta las lagrimas, encuentro genial el acento britanico, es demasiado elegante! ahora a esperar que alguien se apiade con los Subs!

gracias por el dato



06/01/2016 07:16:34 pm 
       2                           
juanlamour


Miembro desde: 25/01/2013

Threads abiertos: 5
Mensajes: 946  
Subtítulos subidos: 179
Threads Favoritos: 0





Muy buen film.

www.subdivx.com/X6XNDUyNjY3X-45-years-2015.html




rampling

3