Login

  

The Lady In The Car With Glasses And The Gun 2015 BR





Thread creado por Syranus el 25/12/2015 09:24:00 am. Lecturas: 2,844. Mensajes: 6. Favoritos: 2





25/12/2015 09:24:00 am 
       10                           
The Lady In The Car With Glasses And The Gun 2015 BR



Cast

Freya Mavor as Dany
Benjamin Biolay as Michel Caravaille
Elio Germano as The young man with dark eyes
Stacy Martin as Anita
Thierry Hancisse as The garage owner
Sandrine Laroche as The garage owners wife
Noémie Morales as Sylvie Caravaille
Eléo Solet as Bertrand

A beautiful secretary steals her boss’ sports car to go joyriding in this stylish psychological thriller. She goes to visit a seaside town she swears she’s never been to, but everyone knows her name. And when a body turns up in the truck of the car, she is suddenly the lead suspect in a murder she knows nothing about. Is she going crazy? Based on a novel by Sébastien Japrisot (One Deadly Summer, A Very Long Engagement).









Video
ID : 1
Format : AVC
Format/Info : Advanced Video Codec
Format profile : High@L4.1
Format settings, CABAC : Yes
Format settings, ReFrames : 5 frames
Codec ID : V_MPEG4/ISO/AVC
Duration : 1h 34mn
Bit rate : 8 384 Kbps
Width : 1 920 pixels
Height : 808 pixels
Display aspect ratio : 2.40:1
Frame rate mode : Constant
Frame rate : 24.000 fps
Color space : YUV
Chroma subsampling : 4:2:0
Bit depth : 8 bits
Scan type : Progressive
Bits/(PixelFrame) : 0.225
Stream size : 5.42 GiB (83%)
Writing library : x264 core 148 r2638 7599210
Encoding settings : cabac=1 / ref=5 / deblock=1:1:1 / analyse=0x3:0x133 / me=umh / subme=8 / psy=1 / psy_rd=1.00:0.00 / mixed_ref=1 / me_range=16 / chroma_me=1 / trellis=1 / 8x8dct=1 / cqm=0 / deadzone=21,11 / fast_pskip=0 / chroma_qp_offset=-2 / threads=12 / lookahead_threads=2 / sliced_threads=0 / nr=0 / decimate=1 / interlaced=0 / bluray_compat=0 / constrained_intra=0 / bframes=3 / b_pyramid=2 / b_adapt=2 / b_bias=0 / direct=3 / weightb=1 / open_gop=0 / weightp=2 / keyint=240 / keyint_min=24 / scenecut=40 / intra_refresh=0 / rc_lookahead=50 / rc=2pass / mbtree=1 / bitrate=8384 / ratetol=1.0 / qcomp=0.60 / qpmin=0 / qpmax=69 / qpstep=4 / cplxblur=20.0 / qblur=0.5 / ip_ratio=1.40 / aq=1:1.00
Language : English
Default : Yes
Forced : No

Audio
ID : 2
Format : DTS
Format/Info : Digital Theater Systems
Mode : 16
Format settings, Endianness : Big
Codec ID : A_DTS
Duration : 1h 34mn
Bit rate mode : Constant
Bit rate : 1 509 Kbps
Channel(s) : 6 channels
Channel positions : Front: L C R, Side: L R, LFE
Sampling rate : 48.0 KHz
Frame rate : 93.750 fps (512 spf)
Bit depth : 24 bits
Compression mode : Lossy
Stream size : 1 023 MiB (15%)
Language : French
Default : Yes
Forced : No

Text
ID : 3
Format : UTF-8
Codec ID : S_TEXT/UTF8
Codec ID/Info : UTF-8 Plain Text
Title : English
Language : English
Default : Yes
Forced : Yes

Menu
00:00:00.000 : en:00:00:00.000
00:07:53.208 : en:00:07:53.208
00:17:22.583 : en:00:17:22.583
00:24:11.916 : en:00:24:11.916
00:32:13.500 : en:00:32:13.500
00:37:32.625 : en:00:37:32.625
00:47:16.166 : en:00:47:16.166
00:55:10.375 : en:00:55:10.375
01:04:41.250 : en:01:04:41.250
01:12:13.500 : en:01:12:13.500
01:21:27.166 : en:01:21:27.166
01:28:42.041 : en:01:28:42.041
01:34:48.958 : en:01:34:48.958

The.Lady.in.the.Car.with.Glasses.and.the.Gun.2015.FRENCH.1080p.BluRay.x264.DTS-FGT
1010 10



25/12/2015 09:29:33 am 
       6                           
pedazo de mujer




25/12/2015 09:46:00 am 
       2                           
Freya Mavor




25/12/2015 11:16:39 am 
       1                           
Agregado a Últimos estrenos - Diciembre (5). Saludos.


28/12/2015 08:06:15 am 
       0                           
sangre?


28/12/2015 11:29:29 am 
       0                           
TOY735


Miembro desde: 06/09/2006

Threads abiertos: 0
Mensajes: 250  
Subtítulos subidos: 6
Threads Favoritos: 0



Sonic4ever escribió:
sangre?
Siii... Cada 28 o 30 días!




with

1