Login

  

Spotlight 2015 DVDScr





Thread creado por Syranus el 23/12/2015 04:06:54 pm. Lecturas: 4,554. Mensajes: 8. Favoritos: 0





23/12/2015 04:06:54 pm 
       10                           


Video
ID : 0
Format : MPEG-4 Visual
Format profile : Advanced Simple@L5
Format settings, BVOP : 2
Format settings, QPel : Yes
Format settings, GMC : No warppoints
Format settings, Matrix : Default (H.263)
Muxing mode : Packed bitstream
Codec ID : XVID
Codec ID/Hint : XviD
Duration : 2h 8mn
Bit rate : 1 610 Kbps
Width : 720 pixels
Height : 384 pixels
Display aspect ratio : 1.85:1
Frame rate : 29.970 (30000/1001) fps
Color space : YUV
Chroma subsampling : 4:2:0
Bit depth : 8 bits
Scan type : Progressive
Compression mode : Lossy
Bits/(PixelFrame) : 0.194
Stream size : 1.45 GiB (86%)
Writing library : XviD 1.2.1 (UTC 2008-12-04)

Audio
ID : 1
Format : AC-3
Format/Info : Audio Coding 3
Mode extension : CM (complete main)
Format settings, Endianness : Big
Codec ID : 2000
Duration : 2h 8mn
Bit rate mode : Constant
Bit rate : 256 Kbps
Channel(s) : 2 channels
Channel positions : Front: L R
Sampling rate : 48.0 KHz
Frame rate : 31.250 fps (1536 spf)
Compression mode : Lossy
Delay relative to video : 14ms
Stream size : 235 MiB (14%)
Alignment : Split accross interleaves
Interleave, duration : 33 ms (1.00 video frame)
Interleave, preload duration : 500 ms





Spotlight.2015.DVDScr.XVID.AC3.HQ.Hive-CM8
1010 10



23/12/2015 04:25:23 pm 
       2                           
Brissa


Miembro desde: 24/10/2014

Threads abiertos: 6
Mensajes: 319  
Subtítulos subidos: 0
Threads Favoritos: 6





Excelente!


23/12/2015 04:42:14 pm 
      -4                           
galante


Miembro desde: 18/09/2013

Threads abiertos: 11
Mensajes: 851  
Subtítulos subidos: 0
Threads Favoritos: 0





En identi la vi esta mañana por ZP.


PD Syranus Por comportarse como un varon usted y yo todo bien


23/12/2015 06:11:02 pm 
       1                           
gracias por el dato


23/12/2015 07:18:05 pm 
       0                           
Solo falta que alguien la subtitule....


23/12/2015 08:08:13 pm 
       2                           
un poco de como va la trama :

Sinopsis:
Spotlight narra la fascinante historia real de la investigación ganadora del Premio Pulitzer llevada a cabo por el Boston Globe que sacudió la ciudad y causó una enorme crisis en una de las instituciones más antiguas y seguidas del mundo. Cuando el tenaz equipo de reporteros de la sección Spotlight ahonda en los alegatos de abuso dentro de la Iglesia Católica, descubren en su investigación el encubrimiento llevado a cabo durante décadas por parte de las altas esferas de organizaciones religiosas, legales y gubernamentales de Boston, desatando una ola de revelaciones alrededor del mundo.





23/12/2015 10:17:46 pm 
       2                           
ernestogeo


Miembro desde: 25/04/2006

Threads abiertos: 24
Mensajes: 1360  
Subtítulos subidos: 5
Threads Favoritos: 0





Dicen que es muy probable que esta sea la próxima ganadora del oscar a mejor película. La trama parece muy interesante, ojala salgan subs


24/12/2015 12:34:39 am 
       4                           
vicodvd


Miembro desde: 28/05/2007

Threads abiertos: 72
Mensajes: 511  
Subtítulos subidos: 16
Threads Favoritos: 0





Cuando vi que salio, pienso en TaMaBin.




settings

3