Login

  

Dilwale 2015 Hindi 1/3 DVDSCR-Rip





Thread creado por cgarcia1097 el 18/12/2015 03:50:37 pm. Lecturas: 1,798. Mensajes: 2. Favoritos: 0





18/12/2015 03:50:37 pm 
       1                           
Dilwale 2015




Dilwale 2015 Hindi 1/3 DVDSCR-Rip XviD AC3-Team DUS

RIP INFO:

Año.............: 2015
Fuente Origen: A DUS Exclusive from the awesome Sher bro!
Ripeador...........: jnmjy
IMDB: www.imdb.com/title/tt4535650/

General
Formato : AVI
Formato/Info : Audio Video Interleave
Tamaño : 1.45 GiB
Duración : 2h 33mn
Tasa de Bits : 1 357 Kbps

Video
ID : 0
Format : MPEG-4 Visual
Format profile : Advanced Simple@L5
Format settings, BVOP : 2
Format settings, QPel : No
Format settings, GMC : No warppoints
Format settings, Matrix : Default (H.263)
Codec ID : XVID
Codec ID/Hint : XviD
Duration : 2h 33mn
Bit rate : 1 094 Kbps
Width : 720 pixels
Height : 304 pixels
Display aspect ratio : 2.35:1
Frame rate : 23.976 fps
Color space : YUV
Chroma subsampling : 4:2:0
Bit depth : 8 bits
Scan type : Progressive
Compression mode : Lossy
Bits/(PixelFrame) : 0.208
Stream size : 1.17 GiB (81%)
Writing library : XviD 67

Audio
ID : 1
Format : AC-3
Format/Info : Audio Coding 3
Mode extension : CM (complete main)
Format settings, Endianness : Big
Codec ID : 2000
Duration : 2h 33mn
Bit rate mode : Constant
Bit rate : 256 Kbps
Channel(s) : 2 channels
Channel positions : Front: L R
Sampling rate : 48.0 KHz
Compression mode : Lossy
Stream size : 281 MiB (19%)
Alignment : Aligned on interleaves
Interleave, duration : 64 ms (1.53 video frames)
Interleave, preload duration : 192 ms


File Name.........................................................................................................Size
Dilwale {2015} DesiScr Rip XviD AC3 {Team DUS} - jnmjy.avi....................1.45 GB












imdb.com/title/tt4535650/
Genero: Acción , Comedia , Crimen , Drama , Familiar , Musical , Romance
Ranking: 6.6 /10 de 4,092 usuarios

Plot: Los hijos de dos familias que compiten se reencuentran después de una separación de 15 años.




11 1



18/12/2015 09:00:27 pm 
       1                           
Agregado a Últimos estrenos - Diciembre (4). Saludos.




dilwale

1