Login

  

The.Visit.2015.BluRay.





Thread creado por cgarcia1097 el 18/12/2015 03:07:29 pm. Lecturas: 1,113. Mensajes: 4. Favoritos: 1





18/12/2015 03:07:29 pm 
       4                           
The.Visit.2015.



The.Visit.2015.720p.BluRay.x264-Replica

Video
ID : 1
Format : AVC
Format/Info : Advanced Video Codec
Format profile : High@L4.1
Format settings, CABAC : Yes
Format settings, ReFrames : 5 frames
Codec ID : V_MPEG4/ISO/AVC
Duration : 1h 34mn
Bit rate : 5 148 Kbps
Width : 1 280 pixels
Height : 696 pixels
Display aspect ratio : 1.85:1
Frame rate mode : Constant
Frame rate : 23.976 (24000/1001) fps
Color space : YUV
Chroma subsampling : 4:2:0
Bit depth : 8 bits
Scan type : Progressive
Bits/(PixelFrame) : 0.241
Stream size : 3.29 GiB (75%)
Writing library : x264 core 148 r2638 7599210
Encoding settings : cabac=1 / ref=5 / deblock=1:0:0 / analyse=0x3:0x113 / me=umh / subme=8 / psy=1 / psy_rd=1.00:0.00 / mixed_ref=1 / me_range=16 / chroma_me=1 / trellis=1 / 8x8dct=1 / cqm=0 / deadzone=21,11 / fast_pskip=0 / chroma_qp_offset=-2 / threads=22 / lookahead_threads=3 / sliced_threads=0 / nr=0 / decimate=1 / interlaced=0 / bluray_compat=0 / constrained_intra=0 / bframes=3 / b_pyramid=2 / b_adapt=2 / b_bias=0 / direct=3 / weightb=1 / open_gop=0 / weightp=2 / keyint=250 / keyint_min=23 / scenecut=40 / intra_refresh=0 / rc_lookahead=50 / rc=2pass / mbtree=1 / bitrate=5148 / ratetol=1.0 / qcomp=0.60 / qpmin=0 / qpmax=69 / qpstep=4 / cplxblur=20.0 / qblur=0.5 / ip_ratio=1.40 / aq=1:1.00
Language : English
Default : Yes
Forced : No

Audio
ID : 2
Format : DTS
Format/Info : Digital Theater Systems
Mode : 16
Format settings, Endianness : Big
Codec ID : A_DTS
Duration : 1h 34mn
Bit rate mode : Constant
Bit rate : 1 509 Kbps
Channel(s) : 6 channels
Channel positions : Front: L C R, Side: L R, LFE
Sampling rate : 48.0 KHz
Frame rate : 93.750 fps (512 spf)
Bit depth : 24 bits
Compression mode : Lossy
Stream size : 1 015 MiB (23%)
Language : English
Default : Yes
Forced : No

Text #1
ID : 3
Format : UTF-8
Codec ID : S_TEXT/UTF8
Codec ID/Info : UTF-8 Plain Text
Language : English
Default : Yes
Forced : No

Text #2
ID : 4
Format : UTF-8
Codec ID : S_TEXT/UTF8
Codec ID/Info : UTF-8 Plain Text
Title : sdh
Language : English
Default : No
Forced : No


File Name.................................................................Size
RARBG.com.txt..................................................0.03 KB
Subs/rep-thevisit720.idx.................................160.42 KB
Subs/rep-thevisit720.sub.................................14.24 MB
rep-thevisit720.mkv............................................4.37 GB
rep-thevisit720.nfo..............................................6.51 KB




imdb.com/title/tt3567288/
Genero: Horror , Thriller
Ranking: 6.4 /10 de 29,043 usuarios
Plot: Dos niños son enviados a su casa de los abuelos a pasar una semana ellos, mientras que su madre soltera va en unas vacaciones de relax junto a su novio. Uno de los niños Becca decide filmar un documental sobre sus abuelos con el fin de ayudar a su mamá vuelva a conectar con sus padres y también saber algunas cosas sobre los padresde ella también. Durante el rodaje del documental Sin embargo Becca y su hermanito Tyler descubren un oscuro secreto acerca de sus abuelos.


Trailer:

44 4



18/12/2015 09:04:52 pm 
       1                           
Agregado a Últimos estrenos - Diciembre (4). Saludos.


22/12/2015 12:34:09 am 
       0                           
beccaX


Miembro desde: 22/12/2015

Threads abiertos: 0
Mensajes: 2  
Subtítulos subidos: 0
Threads Favoritos: 0



hola, cómo descargo? soy nueva acá border="0" src=img/foro/confused.gif>
Gracias por adelantado border="0" src=img/foro/grin.gif>




thevisit

1