Login

  

Everest.2015.720p.BluRay.





Thread creado por cgarcia1097 el 15/12/2015 01:52:39 pm. Lecturas: 1,360. Mensajes: 4. Favoritos: 1





15/12/2015 01:52:39 pm 
       4                           
Everest.2015.



Video
ID : 1
Format : AVC
Format/Info : Advanced Video Codec
Format profile : High@L4.1
Format settings, CABAC : Yes
Format settings, ReFrames : 5 frames
Codec ID : V_MPEG4/ISO/AVC
Duration : 2h 1mn
Bit rate : 4 523 Kbps
Width : 1 280 pixels
Height : 536 pixels
Display aspect ratio : 2.40:1
Frame rate mode : Constant
Frame rate : 23.976 fps
Color space : YUV
Chroma subsampling : 4:2:0
Bit depth : 8 bits
Scan type : Progressive
Bits/(PixelFrame) : 0.275
Stream size : 3.83 GiB (88%)
Writing library : x264 core 148 r2638 7599210
Encoding settings : cabac=1 / ref=5 / deblock=1:0:0 / analyse=0x3:0x133 / me=umh / subme=7 / psy=1 / psy_rd=1.00:0.00 / mixed_ref=1 / me_range=16 / chroma_me=1 / trellis=1 / 8x8dct=1 / cqm=0 / deadzone=21,11 / fast_pskip=0 / chroma_qp_offset=-2 / threads=12 / lookahead_threads=2 / sliced_threads=0 / nr=0 / decimate=1 / interlaced=0 / bluray_compat=0 / constrained_intra=0 / bframes=3 / b_pyramid=2 / b_adapt=1 / b_bias=0 / direct=1 / weightb=1 / open_gop=0 / weightp=2 / keyint=250 / keyint_min=23 / scenecut=40 / intra_refresh=0 / rc_lookahead=40 / rc=2pass / mbtree=1 / bitrate=4523 / ratetol=1.0 / qcomp=0.60 / qpmin=0 / qpmax=69 / qpstep=4 / cplxblur=20.0 / qblur=0.5 / ip_ratio=1.40 / aq=1:1.00
Language : English
Default : Yes
Forced : No

Audio
ID : 2
Format : AC-3
Format/Info : Audio Coding 3
Mode extension : CM (complete main)
Format settings, Endianness : Big
Codec ID : A_AC3
Duration : 2h 1mn
Bit rate mode : Constant
Bit rate : 640 Kbps
Channel(s) : 6 channels
Channel positions : Front: L C R, Side: L R, LFE
Sampling rate : 48.0 KHz
Frame rate : 31.250 fps (1536 spf)
Compression mode : Lossy
Stream size : 555 MiB (12%)
Language : English
Default : Yes
Forced : No

File Name Size
Everest.2015.720p.BluRay.x264-SPARKS.mkv 4.37 GB
RARBG.com.txt 0.03 KB
Subs/Everest.2015.720p.BluRay.x264-SPARKS.idx 80.14 KB
Subs/Everest.2015.720p.BluRay.x264-SPARKS.sub 10.53 MB
everest.2015.720p.bluray.x264-sparks.jpg 4.75 KB
everest.2015.720p.bluray.x264-sparks.nfo 4.21 KB














imdb.com/title/tt2719848/

Genero: Aventura , Biografia , Drama , Historia , Thriller

Ranking: 7,2/10 de 67.382 usuarios

Plot:En la mañana del 10 de mayo 1996 escaladores de dos expediciones comerciales comienzan su ascenso final hacia la cumbre del Monte Everest el punto más alto de la Tierra.
Con poco aviso una violenta tormenta golpea la montaña que envuelve a los aventureros en una de las tormentas de nieve más feroces jamás encontradas por el hombre. Ante el desafío de las más duras condiciones imaginables, los equipos deben soportar ampollas vientos y temperaturas bajo cero en una épica batalla por sobrevivir contra obstáculos casi imposibles.




Name ................................................................................Size
Everest.2015.720p.BluRay.H264.AAC-RARBG........................1.48 GB
Everest.2015.BRRip.XviD.AC3-RARBG....................................1.67 GB
Everest.2015.BRRip.XviD.MP3-RARBG ...................................1.45 GB
Everest.2015.BDRip.x264-SPARKS......................................808.42 MB
Everest.2015.720p.BluRay.x264-SPARKS................................4.38 GB
Everest.2015.720p.WEB-DL.XviD.MP3-FGT.............................3.11 GB
Everest.2015.WEB-DL.x264-FGT..............................................0.99 GB
Everest.2015.WEB-DL.XviD.MP3-FGT......................................1.43 GB
Everest.2015.1080p.WEB-DL.AAC2.0.H264-FGT.....................4.00 GB
Everest.2015.HDRip.KORSUB.x264-RARBG ............................0.99 GB
44 4



15/12/2015 03:49:37 pm 
       1                           
Agregado a Últimos estrenos - Diciembre (4). Saludos.


17/12/2015 11:09:08 am 
       0                           
Audio latino 5.1 ya salio


27/12/2015 09:43:21 pm 
       0                           
TC-BRUCE


Miembro desde: 29/07/2005

Threads abiertos: 87
Mensajes: 634  
Subtítulos subidos: 9
Threads Favoritos: 0





meny212 escribió:
Audio latino 5.1 ya salio


Que lindo en audio latino.. con una voz cualquiera dieciendo Oiie YIONY!! Vamos a escalar esa montaña !! .. me quedo con las voces originales .. y el gran trabajo de leer un subs.. no entiendo como alguien prefiere una voz falsa a la real del actor




everest

1