Login

  

Suburban Gothic 2014 1080p





Thread creado por clarko el 13/10/2015 12:46:42 am. Lecturas: 1,642. Mensajes: 4. Favoritos: 1





13/10/2015 12:46:42 am 
       4                           
clarko


Miembro desde: 22/12/2003

Threads abiertos: 393
Mensajes: 14813  
Subtítulos subidos: 0
Threads Favoritos: 416





Suburban Gothic 2014 1080p BluRay H264 AAC-RARBG



Sinopsis Raymond es un canalizador, eso significa que puede ver cosas que la gente normal ni se imagina. En su día a día debe lidiar con fantasmas y otros seres poco agradables del más allá. Cuando vuelve a su pueblo natal, deberá enfrentarse no solo a sus antiguos compañeros de clase que siempre lo han marginado, sino que él y su amiga Becca serán los únicos capaces de enfrentarse a un fantasma que amenaza su pequeño y apacible pueblo.





Mediainfo :

Video
ID : 1
Format : AVC
Format/Info : Advanced Video Codec
Format profile : High@L4.1
Format settings, CABAC : Yes
Format settings, ReFrames : 4 frames
Codec ID : avc1
Codec ID/Info : Advanced Video Coding
Duration : 1h 30mn
Bit rate : 1 500 Kbps
Width : 1 280 pixels
Height : 720 pixels
Display aspect ratio : 16:9
Frame rate mode : Constant
Frame rate : 23.976 fps
Color space : YUV
Chroma subsampling : 4:2:0
Bit depth : 8 bits
Scan type : Progressive
Bits/(PixelFrame) : 0.068
Stream size : 971 MiB (87%)
Writing library : x264 core 148 r2597M e86f3a1
Encoding settings : cabac=1 / ref=4 / deblock=1:-1:-1 / analyse=0x3:0x113 / me=umh / subme=9 / psy=1 / psy_rd=1.00:0.15 / mixed_ref=1 / me_range=24 / chroma_me=1 / trellis=2 / 8x8dct=1 / cqm=0 / deadzone=21,11 / fast_pskip=1 / chroma_qp_offset=-3 / threads=32 / lookahead_threads=4 / sliced_threads=0 / nr=0 / decimate=1 / interlaced=0 / bluray_compat=0 / constrained_intra=0 / bframes=3 / b_pyramid=2 / b_adapt=1 / b_bias=0 / direct=1 / weightb=1 / open_gop=0 / weightp=2 / keyint=250 / keyint_min=25 / scenecut=40 / intra_refresh=0 / rc_lookahead=50 / rc=2pass / mbtree=1 / bitrate=1500 / ratetol=1.0 / qcomp=0.60 / qpmin=0 / qpmax=69 / qpstep=4 / cplxblur=20.0 / qblur=0.5 / vbv_maxrate=31250 / vbv_bufsize=31250 / nal_hrd=none / filler=0 / ip_ratio=1.40 / aq=3:1.00
Encoded date : UTC 1904-01-01 00:00:00
Tagged date : UTC 1904-01-01 00:00:00

Audio
ID : 2
Format : AAC
Format/Info : Advanced Audio Codec
Format profile : LC
Codec ID : 40
Duration : 1h 30mn
Duration_LastFrame : 32ms
Bit rate mode : Constant
Bit rate : 224 Kbps
Channel(s) : 2 channels
Channel(s)_Original : 6 channels
Channel positions : Front: L C R, Side: L R, LFE
Sampling rate : 48.0 KHz
Compression mode : Lossy
Stream size : 145 MiB (13%)
Language : English
Encoded date : UTC 1904-01-01 00:00:00
Tagged date : UTC 1904-01-01 00:00:00


Suburban.Gothic.2014.720p.BluRay.H264.AAC-RARBG
Suburban.Gothic.2014.1080p.BluRay.x264-RedBlade
Suburban.Gothic.2014.720p.BluRay.x264-RedBlade
Suburban.Gothic.2014.720p.BRRip.x264-YIFY


Subs
1080p y 720p BluRay x264-RedBlade por TaMaBin Acá
1080p y 720p BrRip x264 - YIFY por TaMaBin Acá
44 4



13/10/2015 04:04:28 am 
       1                           
Agregado a Últimos estrenos - Octubre (2). Saludos.


14/10/2015 06:32:23 am 
       1                           



19/10/2015 10:34:38 pm 
       0                           
Malísima la película.






suburban

1