Login

  

Southpaw (2015) WEB-DL





Thread creado por meny212 el 27/08/2015 12:15:04 pm. Lecturas: 1,060. Mensajes: 15. Favoritos: 1





27/08/2015 12:15:04 pm 
       21                           
Southpaw (2015)




Southpaw 2015 720p WEB-DL AAC 2 0 H264-SRS
Southpaw 2015 HDRip XviD-ETRG
Southpaw 2015 WEBRip x264-RARBG
Southpaw 2015 720p WEBRip XviD MP3-RARBG
Southpaw 2015 HDRip XviD AC3-2.0-EVO 0 1 1.44 GB
Southpaw.2015.WEBRip.x264-RARBG 4 87 1.06 GB

Película dirigida por Antoine Fuqua (Los amos de Brooklyn, El Rey Arturo, Día de entrenamiento) y protagonizada por Jake Gyllenhaal (Sin tregua, Código fuente, Amor y otras drogas) y Rachel McAdams (Una cuestión de tiempo, El diario de Noa).
El argumento del filme gira en torno a un luchador (Jake Gyllenhaal) que, a pesar de gozar de gloria y de premios en su pasado, actualmente ha caído en desgracia. Sin embargo, no se ha rendido y ha tomado la decisión de mejorar su imagen por el bien de su mujer y su hija.





www.imdb.com/title/tt1798684/

Trailer 1

Trailer 2

Trailer 3





Video
ID : 0
Format : MPEG-4 Visual
Format profile : Simple@L5
Format settings, BVOP : No
Format settings, QPel : No
Format settings, GMC : No warppoints
Format settings, Matrix : Default (H.263)
Codec ID : XVID
Codec ID/Hint : XviD
Duration : 2h 3mn
Bit rate : 1 598 Kbps
Width : 720 pixels
Height : 304 pixels
Display aspect ratio : 2.40:1
Frame rate : 23.976 fps
Color space : YUV
Chroma subsampling : 4:2:0
Bit depth : 8 bits
Scan type : Progressive
Compression mode : Lossy
Bits/(PixelFrame) : 0.305
Stream size : 1.38 GiB (89%)
Writing library : Lavc56.13.100

Audio
ID : 1
Format : MPEG Audio
Format version : Version 1
Format profile : Layer 3
Mode : Joint stereo
Codec ID : 55
Codec ID/Hint : MP3
Duration : 2h 3mn
Bit rate mode : Constant
Bit rate : 192 Kbps
Channel(s) : 2 channels
Sampling rate : 48.0 KHz
Compression mode : Lossy
Stream size : 170 MiB (11%)
Alignment : Aligned on interleaves
Interleave, duration : 24 ms (0.58 video frame)
Interleave, preload duration : 504 ms
Writing library : LAME3.99.5











Joder, un moderador quito este post, del home ya estoy en la lista negra de esta persona, jojojo prefiero tener un trabajo remunerado a subtitular toda mi vida

Ultima edición por meny212 el 28/08/2015 10:18:12 , editado 2veces
2121 21



27/08/2015 12:34:06 pm 
       2                           
Gracias por el aviso


27/08/2015 02:21:31 pm 
       1                           
excelente!! salio muy rapido


27/08/2015 03:18:43 pm 
       1                           
¿Hay subtítulos de calidad?


27/08/2015 03:38:37 pm 
       3                           
Agregado a Últimos estrenos - Agosto (4). Saludos.


27/08/2015 03:58:12 pm 
       1                           
pelonlono


Miembro desde: 31/08/2007

Threads abiertos: 7
Mensajes: 148  
Subtítulos subidos: 0
Threads Favoritos: 0





OMG.!!! tan rapido, esperando los subtitulos


27/08/2015 07:02:30 pm 
       3                           
pelonlono escribió:
OMG.!!! tan rapido, esperando los subtitulos


Yo lo hubiera hecho, pero me borran el subtitulo o le empiezan a quitar los comentarios de descarga y detalles sin mi permiso, Politicas estupidas de los moderadores


27/08/2015 08:32:45 pm 
       2                           
Chaaaaaaaaaaaaaassssss gracias, che.


27/08/2015 08:37:49 pm 
       3                           
Si sale Jake seguro es buena


27/08/2015 09:09:51 pm 
       0                           
yordanny


Miembro desde: 25/11/2013

Threads abiertos: 14
Mensajes: 794  
Subtítulos subidos: 0
Threads Favoritos: 2





Esto fue antes o despues de bajar de la montaña


27/08/2015 09:14:24 pm 
       0                           
axel hizo sub para esta pelicula saludos


perdon era para esta Tale of Tales (2015


28/08/2015 03:58:49 am 
       2                           
AireL


Miembro desde: 16/09/2011

Threads abiertos: 191
Mensajes: 6114  
Subtítulos subidos: 0
Threads Favoritos: 27





Excelente, salio muy rapido.




southpaw

3