Login

  

San Andreas (2015), en HDRip





Thread creado por Chilito07 el 25/08/2015 06:54:01 pm. Lecturas: 3,263. Mensajes: 13. Favoritos: 2





25/08/2015 06:54:01 pm 
       14                           


Genre: Action Drama Thriller
IMDB Rating: 6.5/10 from 45,740 users Metascore: 43/100
Directed by: Brad Peyton
Starring: Dwayne Johnson, Carla Gugino, Alexandra Daddario

Release Name: San.Andreas.2015.720p.HDRip.X264.AC3-EVO
Size: 2.37 GB
Video: MKV 1280 x 530 2900 Kbps
Audio: English AC3 192 Kbps
Runtime: 1h 54mn

Otros releases:
San.Andreas.2015.HDRip.XviD.AC3-EVO 1.4GB
San.Andreas.2015.720p.WEB-DL.AAC.2.0.H264-SRS - 2.09GB (fuente original)



Subtitulos por Th0ravenger
1416 16



25/08/2015 07:07:59 pm 
       2                           
San.Andreas.2015.720p.WEB-DL.AAC.2.0.H264-SRS - 2.09GB


25/08/2015 07:08:53 pm 
       1                           
vamossssss carajoooooooo


25/08/2015 07:13:41 pm 
       2                           
Agregado a Últimos estrenos - Agosto (4). Saludos.


25/08/2015 07:24:04 pm 
      -1                           
AireL


Miembro desde: 16/09/2011

Threads abiertos: 191
Mensajes: 6114  
Subtítulos subidos: 0
Threads Favoritos: 27








25/08/2015 07:36:11 pm 
       0                           
juan19


Miembro desde: 28/07/2012

Threads abiertos: 5
Mensajes: 322  
Subtítulos subidos: 3
Threads Favoritos: 0





Esperando salga el bluray 3d.


25/08/2015 07:39:31 pm 
       6                           
alesito


Miembro desde: 25/05/2004

Threads abiertos: 28
Mensajes: 4013  
Subtítulos subidos: 1
Threads Favoritos: 0





juan19 escribió:
Esperando salga el bluray 3d.


Las gomas de Daddario valen la espera del 3d!


25/08/2015 08:56:10 pm 
       0                           
DrLink


Miembro desde: 12/03/2013

Threads abiertos: 4
Mensajes: 215  
Subtítulos subidos: 5
Threads Favoritos: 0





No se si aguante a esperar el BluRay... seguro baje esta!


25/08/2015 10:04:23 pm 
       15                           
SpoilerAlert


Miembro desde: 14/04/2014

Threads abiertos: 45
Mensajes: 633  
Subtítulos subidos: 10
Threads Favoritos: 0





alesito escribió:
juan19 escribió: Esperando salga el bluray 3d.Las gomas de Daddario valen la espera del 3d!



Que así salga toda la película... QUE ASÍ SALGA TODA LA PELÍCULAAAAAAAAA!!!




25/08/2015 11:53:50 pm 
       2                           
Ayala00


Miembro desde: 09/09/2010

Threads abiertos: 20
Mensajes: 195  
Subtítulos subidos: 4
Threads Favoritos: 0





ahhhhh un manjarsh


26/08/2015 01:11:18 am 
       1                           
AireL


Miembro desde: 16/09/2011

Threads abiertos: 191
Mensajes: 6114  
Subtítulos subidos: 0
Threads Favoritos: 27





SpoilerAlert escribió:
alesito escribió: juan19 escribió: Esperando salga el bluray 3d.Las gomas de Daddario valen la espera del 3d! Que así salga toda la película... QUE ASÍ SALGA TODA LA PELÍCULAAAAAAAAA!!! choryuken.com/wp-content/uploads/2015/06/daddario.gifwww.picshare.ru/uploads/140122/av2lw1rJjw.gif



Excelente imagen, me servira para mis noches de soledad.


27/08/2015 09:11:31 am 
       0                           
Seria bueno que publiquen las capturas de la version que postean.

Estas corresponden a la version:

San.Andreas.2015.HDRip.XviD.AC3-EVO

San.Andreas.2015.HDRip.XviD.AC3-EVO.avi
Format : AVI
Format/Info : Audio Video Interleave
Format profile : OpenDML
Format settings : rec
File size : 1.41 GiB
Duration : 1h 54mn
Overall bit rate : 1 769 Kbps
Writing application : AVI-Mux GUI 1.17.8.3, Feb 16 201019:42:50

Video
ID : 0
Format : MPEG-4 Visual
Format profile : Advanced Simple@L5
Format settings, BVOP : 2
Format settings, QPel : No
Format settings, GMC : No warppoints
Format settings, Matrix : Default (H.263)
Muxing mode : Packed bitstream
Codec ID : XVID
Codec ID/Hint : XviD
Duration : 1h 54mn
Bit rate : 1 572 Kbps
Width : 720 pixels
Height : 304 pixels
Display aspect ratio : 2.35:1
Frame rate : 23.976 fps
Color space : YUV
Chroma subsampling : 4:2:0
Bit depth : 8 bits
Scan type : Progressive
Compression mode : Lossy
Bits/(PixelFrame) : 0.300
Stream size : 1.26 GiB (89%)
Writing library : XviD 66

Audio
ID : 1
Format : AC-3
Format/Info : Audio Coding 3
Mode extension : CM (complete main)
Codec ID : 2000
Duration : 1h 54mn
Bit rate mode : Constant
Bit rate : 192 Kbps
Channel(s) : 2 channels
Channel positions : Front: L R
Sampling rate : 48.0 KHz
Bit depth : 16 bits
Compression mode : Lossy
Stream size : 157 MiB (11%)
Alignment : Aligned on interleaves
Interleave, duration : 64 ms (1.53 video frames)
Interleave, preload duration : 192 ms
Title : ac3









hdrip

3