Login

  

The Gambler 2014





Thread creado por Carruselambra el 30/03/2015 03:31:02 pm. Lecturas: 1,445. Mensajes: 10. Favoritos: 0





30/03/2015 03:31:02 pm 
       6                           
Saludos a todos. Salió esta versión:

The.Gambler.2014.720p.BluRay.x264-SPARKS


Sinopsis: Un profesor de inglés adicto al juego le debe a la mafia 40.000 dólares. Para ayudarle a salir a flote, su madre decide darle algún dinero que él trata de multiplicar rápidamente en Las Vegas, pero la suerte no le acompaña, por lo que su futuro estará en manos de la mafia. (FILMAFFINITY)


Media info:

Video
ID : 1
Format : AVC
Format/Info : Advanced Video Codec
Format profile : High@L4.1
Format settings, CABAC : Yes
Format settings, ReFrames : 5 frames
Codec ID : V_MPEG4/ISO/AVC
Duration : 1h 50mn
Bit rate : 5 535 Kbps
Width : 1 280 pixels
Height : 536 pixels
Display aspect ratio : 2.40:1
Frame rate mode : Constant
Frame rate : 23.976 fps
Color space : YUV
Chroma subsampling : 4:2:0
Bit depth : 8 bits
Scan type : Progressive
Bits/(PixelFrame) : 0.336
Stream size : 4.18 GiB (77%)
Writing library : x264 core 144 r2525 40bb568
Language : English
Default : Yes
Forced : No

Audio
ID : 2
Format : DTS
Format/Info : Digital Theater Systems
Mode : 16
Format settings, Endianness : Big
Codec ID : A_DTS
Duration : 1h 50mn
Bit rate mode : Constant
Bit rate : 1 509 Kbps
Channel(s) : 6 channels
Channel positions : Front: L C R, Side: L R, LFE
Sampling rate : 48.0 KHz
Bit depth : 24 bits
Compression mode : Lossy
Stream size : 1.17 GiB (21%)
Language : English
Default : Yes
Forced : No

IMDb
66 6



30/03/2015 03:36:37 pm 
       3                           




ahi te tiro una mano con la imagen


30/03/2015 03:41:54 pm 
       0                           
Templari0s escribió:
www.imgili.com/images/42828106308137947171.jpgahi te tiro una mano con la imagen border="0" src=img/foro/grin.gif>


Gracias Templario.


30/03/2015 07:04:30 pm 
       4                           

31/03/2015 02:58:50 am 
       2                           
Agregado a Últimos estrenos - Marzo (4). Saludos.


31/03/2015 12:24:32 pm 
       0                           
Opiniones sin spoilers??


31/03/2015 05:38:42 pm 
       1                           
SpoilerAlert


Miembro desde: 14/04/2014

Threads abiertos: 45
Mensajes: 633  
Subtítulos subidos: 10
Threads Favoritos: 0





gabita1977 escribió:
Opiniones sin spoilers??


La actuación de Wahlberg no es mala, pero son las breves intervenciones de Lange y los dos speechs (sublimes) de Goodman lo que termina haciendo creíble ´´el problema existencial´´ del personaje.

Me gustó esa franca desmotivación literaria al inicio, pero siento que faltó reforzar esa visión nihilista y caótica del personaje.

Es buena movie

3 y media estrellas (sobre 5)

Infinitas gracias a Axel7902, TaMaBin y Oraldo por lo raudo de estos subs.


31/03/2015 06:50:45 pm 
       0                           
SpoilerAlert escribió:
gabita1977 escribió: Opiniones sin spoilers??La actuación de Wahlberg no es mala, pero son las breves intervenciones de Lange y los dos speechs sublimes de Goodman lo que termina haciendo creíble el problema existencial del personaje. Me gustó esa franca desmotivación literaria al inicio, pero siento que faltó reforzar esa visión nihilista y caótica del personaje.Es buena movie3 y media estrellas sobre 5 Infinitas gracias a Axel7902, TaMaBin y Oraldo por lo raudo de estos subs.

Muchas gracias!! La voy a ver.


01/04/2015 09:35:09 am 
       2                           
Te dejo el trailer...




10/04/2015 04:32:11 pm 
       0                           



info

1