Login

  

Big Eyes (2014) WEB-DL





Thread creado por lucas2730 el 27/01/2015 03:07:35 pm. Lecturas: 1,777. Mensajes: 10. Favoritos: 0





27/01/2015 03:07:35 pm 
       7                           









Info:

[mediainfo]

Format : AVI
Format/Info : Audio Video Interleave
File size : 1.33 GiB
Duration : 1h 45mn
Overall bit rate : 1 803 Kbps
Movie name : RARBG.COM - Big.Eyes.2014.WEB-DL.XviD.MP3-RARBG
Writing library : VirtualDub build 35491/release
Comment : RARBG.COM - Big.Eyes.2014.WEB-DL.XviD.MP3-RARBG

Video
ID : 0
Format : MPEG-4 Visual
Format profile : Simple@L5
Format settings, BVOP : No
Format settings, QPel : No
Format settings, GMC : No warppoints
Format settings, Matrix : Default (H.263)
Codec ID : XVID
Codec ID/Hint : XviD
Duration : 1h 45mn
Bit rate : 1 598 Kbps
Width : 720 pixels
Height : 384 pixels
Display aspect ratio : 1.85:1
Frame rate : 24.000 fps
Color space : YUV
Chroma subsampling : 4:2:0
Bit depth : 8 bits
Scan type : Progressive
Compression mode : Lossy
Bits/(PixelFrame) : 0.241
Stream size : 1.18 GiB (89%)
Writing library : Lavc56.20.100

Audio
ID : 1
Format : MPEG Audio
Format version : Version 1
Format profile : Layer 3
Mode : Joint stereo
Mode extension : MS Stereo
Codec ID : 55
Codec ID/Hint : MP3
Duration : 1h 45mn
Bit rate mode : Constant
Bit rate : 192 Kbps
Channel(s) : 2 channels
Sampling rate : 48.0 KHz
Compression mode : Lossy
Stream size : 145 MiB (11%)
Alignment : Aligned on interleaves
Interleave, duration : 24 ms (0.58 video frame)
Interleave, preload duration : 504 ms
Writing library : LAME3.99.5



Versiones :
Big.Eyes.2014.WEB-DL.x264-RARBG
Big.Eyes.2014.720p.WEB-DL.XviD.MP3-RARBG
Big.Eyes.2014.WEB-DL.XviD.MP3-RARBG
Big Eyes 2014 720p WEB-DL XviD MP3-RARBG
Big Eyes 2014 HDRip XviD AC3 EVO
Big Eyes 2014 720p WEB-DL x264 AC3-EVO
Big Eyes 2014 HDRip XVID AC3-brucelee


Saludos
77 7



27/01/2015 03:47:36 pm 
       4                           
Agregado a Últimos estrenos - Enero (4). Saludos.


27/01/2015 04:26:02 pm 
       0                           
Genial.me ganaste


27/01/2015 07:07:47 pm 
       4                           
Un film de Tim sin Johnny ni Helena?????




Igual compro


27/01/2015 11:30:24 pm 
       4                           
QUIZA SE TE FUE , PERO PON LA SIPNOSIS, vedria bien un poco de Info





Narra la historia de Margaret y Walter Keane. En los años 50 y 60 del siglo pasado, tuvieron un éxito enorme los cuadros que representaban niños de grandes ojos. La autora era Margaret, pero los firmaba Walter, su marido, porque, al parecer, él era muy hábil para el marketing


27/01/2015 11:46:25 pm 
       3                           
lettystoner escribió:
Un film de Tim sin Johnny ni Helena?????img.pandawhale.com/post-24030-Mark-Wahlberg-confused-gif-Img-Bi1v.gifIgual compro

Dicen que despues del divorcio, Helena se quedó con la custodia de Johnny Depp


Ahora en serio, no son fan de Tim Burton, en este caso me llama la atención por Christoph Waltz


28/01/2015 12:21:12 am 
       2                           
DrStreller


Miembro desde: 28/08/2014

Threads abiertos: 0
Mensajes: 1596  
Subtítulos subidos: 0
Threads Favoritos: 0



Alexkea escribió:
lettystoner escribió: Un film de Tim sin Johnny ni Helena?????img.pandawhale.com/post-24030-Mark-Wahlberg-confused-gif-Img-Bi1v.gifIgual compro Dicen que despues del divorcio, Helena se quedó con la custodia de Johnny Depp





28/01/2015 09:23:55 am 
       1                           


Esperando la excelencia del subtitulo para los web-dl!!!...


10/02/2015 09:31:04 am 
       0                           
Subi estos, sirven para la version indicada.

Big Eyes-Subs

La pelicula me gusto mas de lo que esperaba. Burton nunca me gusto, esa cuestion de su estetica no es algo de mi agrado, aunque en esta pelicula cumplio uno o dos de sus fetiches clasicos, teñir de rubio a su actriz principal y darle ciertos aires irreales a ciertas partes.

Igual, lo mejor es Waltz, Amy Addams ya me acostumbro a ser esplendida.


29/03/2015 04:19:09 pm 
       0                           



thumbpng

1