Login

  

Salió Gone Girl 2014 720p WEB-DL x264 AC3-EVO





Thread creado por tukituki el 10/12/2014 09:44:35 pm. Lecturas: 2,448. Mensajes: 16. Favoritos: 1





10/12/2014 09:44:35 pm 
       12                           
tukituki


Miembro desde: 15/08/2004

Threads abiertos: 121
Mensajes: 670  
Subtítulos subidos: 0
Threads Favoritos: 35







Título original
Gone Girl
Año
2014
Duración
149 min.
País
[Estados Unidos] Estados Unidos
Director
David Fincher
Guión
Gillian Flynn (Libro: Gillian Flynn)
Música
Trent Reznor, Atticus Ross
Fotografía
Jeff Cronenweth
Reparto
Ben Affleck, Rosamund Pike, Neil Patrick Harris, Tyler Perry, Kim Dickens, Patrick Fugit, Carrie Coon, Missi Pyle, Kathleen Rose Perkins, Scoot McNairy, Sela Ward, Emily Ratajkowski, Lee Norris, Casey Wilson, Lyn Quinn, Lola Kirke, David Clennon, Lola Kirke
Productora
20th Century Fox / New Regency
Género
Intriga. Thriller Secuestros / Desapariciones


Sinopsis
El día de su quinto aniversario de boda, Nick Dunne (Ben Affleck) informa que su esposa Amy (Rosamund Pike) ha desaparecido misteriosamente. Pero pronto la presión policial y mediática hace que el retrato de felicidad doméstica que ofrece Nick empiece a tambalearse. Además, su extraña conducta lo convierte en sospechoso, y todo el mundo comienza a preguntase si Nick mató a su esposa... Adaptación del best-seller ´´Perdida´´, de Gillian Flynn.







RELEASE: Gone.Girl.2014.HDRip.XviD.AC3-EVO

SOURCE: iTunes (EUR)

ViDEO: 1500 kbps XviD

RESOLUTiON: 720x304

RUNTiME: 2h29m31sec

AUDiO: 384 CBR AC-3

LANGUAGE: ENGLiSH


Gone Girl 2014 720p WEB-DL x264 AC3-EVO (4.9GB)
Gone Girl 2014 HDRip XviD AC3-EVO (2.1GB)
Gone Girl 2014 HDRip XviD-EVO (967MB)
Gone Girl 2014 HDRip X264-PLAYNOW (1.8GB)
1214 14



10/12/2014 09:46:45 pm 
       1                           
DOC_26


Miembro desde: 05/03/2007

Threads abiertos: 0
Mensajes: 148  
Subtítulos subidos: 5
Threads Favoritos: 0



A la espera de los subs


10/12/2014 10:29:56 pm 
       1                           
vanzombie


Miembro desde: 05/10/2011

Threads abiertos: 20
Mensajes: 485  
Subtítulos subidos: 0
Threads Favoritos: 4





Gone Girl 2014 1080p WEB-DL DD5 1 H264-RARBG

Video
ID : 2
Format : AVC
Format/Info : Advanced Video Codec
Format profile : High@L4.0
Format settings, CABAC : Yes
Format settings, ReFrames : 5 frames
Codec ID : V_MPEG4/ISO/AVC
Duration : 2h 29mn
Bit rate : 3 813 Kbps
Width : 1 916 pixels
Height : 796 pixels
Display aspect ratio : 2.40:1
Frame rate mode : Constant
Frame rate : 23.976 fps
Color space : YUV
Chroma subsampling : 4:2:0
Bit depth : 8 bits
Scan type : Progressive
Bits/(PixelFrame) : 0.104
Stream size : 3.98 GiB (89%)
Title : Gone.Girl.2014.1080p.WEB-DL.DD5.1.H264-RARBG
Language : English
Default : Yes
Forced : No
Color primaries : BT.709
Transfer characteristics : BT.709
Matrix coefficients : BT.709

Audio
ID : 1
Format : AC-3
Format/Info : Audio Coding 3
Mode extension : CM (complete main)
Format settings, Endianness : Big
Codec ID : A_AC3
Duration : 2h 29mn
Bit rate mode : Constant
Bit rate : 384 Kbps
Channel(s) : 6 channels
Channel positions : Front: L C R, Side: L R, LFE
Sampling rate : 48.0 KHz
Bit depth : 16 bits
Compression mode : Lossy
Stream size : 410 MiB (9%)
Title : Gone.Girl.2014.1080p.WEB-DL.DD5.1.H264-RARBG
Language : English
Default : Yes
Forced : No

Pesa menos q la de 720p.. 4.65GB esta 4.47GB


10/12/2014 11:06:56 pm 
       1                           
ya era hora


10/12/2014 11:45:00 pm 
       2                           
93552807


Miembro desde: 30/05/2006

Threads abiertos: 13
Mensajes: 836  
Subtítulos subidos: 4
Threads Favoritos: 0





Excelente, el release viene con sub en Ingles... Comprando esta version, Gone Girl 2014 720p WEB-DL x264 AC3-EVO (4.9GB) ... y a la espera de lo que todos sabemos.



11/12/2014 07:47:49 pm 
       1                           
Buenisima


12/12/2014 05:36:56 pm 
       2                           
Tino81


Miembro desde: 04/11/2014

Threads abiertos: 10
Mensajes: 649  
Subtítulos subidos: 0
Threads Favoritos: 0





La acabo de ver y es de lo mejor que he visto este año


12/12/2014 09:58:24 pm 
       2                           
Agregado a Últimos estrenos - Diciembre (2). Saludos.


13/12/2014 12:11:58 am 
       2                           
93552807


Miembro desde: 30/05/2006

Threads abiertos: 13
Mensajes: 836  
Subtítulos subidos: 4
Threads Favoritos: 0





Acabo de verla... de verdad excelente...


19/12/2014 08:53:46 pm 
       2                           
yootravez


Miembro desde: 22/12/2003

Threads abiertos: 56
Mensajes: 711  
Subtítulos subidos: 54
Threads Favoritos: 0





Ya salió la BrRip de Yifi hace una hora


20/12/2014 07:41:37 am 
       2                           
Thanks tukituki!!!...la estaba esperando, bajando Gone Girl 2014 1080p WEB-DL DD5 1 H264-RARBG...


21/12/2014 09:14:36 pm 
       2                           
juanma2


Miembro desde: 09/09/2006

Threads abiertos: 3
Mensajes: 114  
Subtítulos subidos: 4
Threads Favoritos: 0





Una de las mejores pelis en mucho tiempo. RECOMENDADA a full.




21/12/2014 09:53:01 pm 
       2                           
La acabo de ver y efectivamente es muy buena.


21/12/2014 10:54:56 pm 
       3                           
Cullen


Miembro desde: 15/01/2014

Threads abiertos: 12
Mensajes: 1183  
Subtítulos subidos: 0
Threads Favoritos: 9





David Fincher tiene muy buenas películas, pero esta me pareció de mediocre a mala, aburrida, predecible, final soso...

no entiendo ese 8.4 en imdb.


24/12/2014 12:01:49 am 
       1                           
peliculooonnnnnnnnn si me quedaban ganas de casarme se me fueron despues de ver esta pelicula -al menos por un tiempo..todo lo que hace ben afleck es garantia de buena calidad, este flaco no actua, produce o dirige cualquier cosa, hay una buena historia, un buen guion y los actores son de lo mejor...la que hace de amy actua muy bien y no me voy a olvidar de su cara ni del hermoso culo que tiene


05/01/2015 09:30:23 pm 
       0                           
Elmister


Miembro desde: 07/05/2010

Threads abiertos: 11
Mensajes: 795  
Subtítulos subidos: 0
Threads Favoritos: 15





La vi hoy... pedí la misma peli que vio la crítica y me trajeron ´´esto´´. Flojonga, flojonga.




-evo

3