Login

  

The.Expendables.3.2014





Thread creado por m@nul el 24/07/2014 04:17:10 pm. Lecturas: 7,199. Mensajes: 31. Favoritos: 4







24/07/2014 04:17:10 pm 
       7                           







Creo que no hay nada que decir.

The.Expendables.3.2014.DVDScr.LEAKED.CLEAN.XviD.MP3-RARBG
77 7



24/07/2014 04:25:51 pm 
       2                           
marcop


Miembro desde: 27/02/2005

Threads abiertos: 85
Mensajes: 762  
Subtítulos subidos: 32
Threads Favoritos: 0





creo ke es fake!!!! supongo ke son capturas del trailer, ojala me equivoque

edito: ok ya vi ke no es fake , ahora espero ke alguien haga unos buenos subtitulos


24/07/2014 04:26:29 pm 
       1                           
que rapido ya estan en todos los torrents publicados busquenlo en kickass


24/07/2014 04:31:05 pm 
       2                           
Agregado a Últimos estrenos - Julio (4). Si llega a ser fake avisen. Saludos.


24/07/2014 04:34:28 pm 
       3                           
Tiene horas que salio y no es fake... y el audio esta limpio como dice en la version.

Caps propias.









24/07/2014 04:35:41 pm 
       1                           
AireL


Miembro desde: 16/09/2011

Threads abiertos: 191
Mensajes: 6114  
Subtítulos subidos: 0
Threads Favoritos: 27





Gracias por el aviso m@nul


24/07/2014 04:37:19 pm 
       0                           
CortoMaltes


Miembro desde: 19/01/2013

Threads abiertos: 1
Mensajes: 1225  
Subtítulos subidos: 1
Threads Favoritos: 0





The.Expendables.3.2014.DVDScr.LEAKED.CLEAN.XviD.MP3-RARBG

Bajado de kick ass

Confirmado el FAKE
Es una porno.


24/07/2014 04:41:10 pm 
       5                           



24/07/2014 04:51:35 pm 
       1                           
CortoMaltes escribió:
The.Expendables.3.2014.DVDScr.LEAKED.CLEAN.XviD.MP3-RARBG Bajado de kick assConfirmado el FAKEEs una porno.


Pues no sabes buscar: Expendables 3


24/07/2014 04:51:46 pm 
       1                           
CortoMaltes escribió:
The.Expendables.3.2014.DVDScr.LEAKED.CLEAN.XviD.MP3-RARBG Bajado de kick assConfirmado el FAKEEs una porno.


Tienes que bajar de un usuario confiable pues ! , cualquier puede subir algo con el mismo nombre!


24/07/2014 05:04:48 pm 
       1                           
clarko


Miembro desde: 22/12/2003

Threads abiertos: 393
Mensajes: 14822  
Subtítulos subidos: 0
Threads Favoritos: 416





The.Expendables.3.2014.DVDScr.LEAKED.CLEAN.XviD.MP3-RARBG

www.imdb.com/title/tt2333784/

Info:

[mediainfo]

Format : AVI
Format/Info : Audio Video Interleave
Format profile : OpenDML
File size : 2.50 GiB
Duration : 2h 6mn
Overall bit rate : 2 838 Kbps
Movie name : RARBG.COM - The.Expendables.3.2014.DVDScr.LEAKED.CLEAN.XviD.MP3-RARBG
Writing library : VirtualDub build 35491/release
Comment : RARBG.COM - The.Expendables.3.2014.DVDScr.LEAKED.CLEAN.XviD.MP3-RARBG

Video
ID : 0
Format : MPEG-4 Visual
Format profile : Simple@L5
Format settings, BVOP : No
Format settings, QPel : No
Format settings, GMC : No warppoints
Format settings, Matrix : Default (H.263)
Codec ID : XVID
Codec ID/Hint : XviD
Duration : 2h 6mn
Bit rate : 2 567 Kbps
Width : 720 pixels
Height : 304 pixels
Display aspect ratio : 2.35:1
Frame rate : 23.976 fps
Color space : YUV
Chroma subsampling : 4:2:0
Bit depth : 8 bits
Scan type : Progressive
Compression mode : Lossy
Bits/(PixelFrame) : 0.489
Stream size : 2.26 GiB (90%)
Writing library : Lavc55.61.100

Audio
ID : 1
Format : MPEG Audio
Format version : Version 1
Format profile : Layer 3
Mode : Joint stereo
Codec ID : 55
Codec ID/Hint : MP3
Duration : 2h 6mn
Bit rate mode : Constant
Bit rate : 256 Kbps
Channel(s) : 2 channels
Sampling rate : 44.1 KHz
Compression mode : Lossy
Stream size : 231 MiB (9%)
Alignment : Aligned on interleaves
Interleave, duration : 26 ms (0.63 video frame)
Interleave, preload duration : 522 ms



[/mediainfo]

Notes:
Greetz to everyone





24/07/2014 05:16:24 pm 
       1                           
vanzombie


Miembro desde: 05/10/2011

Threads abiertos: 20
Mensajes: 485  
Subtítulos subidos: 0
Threads Favoritos: 4





The Expendables 3 (2014) DVDSCR XviD-MAXSPEED kickass y extratorrent...


24/07/2014 05:19:20 pm 
       1                           
CortoMaltes


Miembro desde: 19/01/2013

Threads abiertos: 1
Mensajes: 1225  
Subtítulos subidos: 1
Threads Favoritos: 0





Gracias por los consejos, intentare de nuevo...


24/07/2014 05:55:30 pm 
       2                           
joelomas


Miembro desde: 07/02/2007

Threads abiertos: 8
Mensajes: 77  
Subtítulos subidos: 2
Threads Favoritos: 0





The Expendables 3 2014 ENG HQDVDSCR XviD AC3-PolishQuality

112.imagebam.com/download/jWqRHrvR4K8eUPgfiowD1g/34090/340899745/2.png
111.imagebam.com/download/SGR7SCNEmIhJQp3iyTfVsA/34090/340899746/3.png


24/07/2014 06:04:22 pm 
       2                           
The.Expendables.3.2014.DVDSCR.XviD-EVO

Size: 1.46 GB
Video: AVi 640×272 1501 kbps
Audio: English MP3 128 Kbps
Runtime: 2hs 2ms






24/07/2014 06:15:08 pm 
       4                           
CortoMaltes escribió:
The.Expendables.3.2014.DVDScr.LEAKED.CLEAN.XviD.MP3-RARBG Bajado de kick assConfirmado el FAKEEs una porno.


Y la porno al menos esta buena?


24/07/2014 06:18:25 pm 
       0                           
CortoMaltes


Miembro desde: 19/01/2013

Threads abiertos: 1
Mensajes: 1225  
Subtítulos subidos: 1
Threads Favoritos: 0





m@nul escribió:
CortoMaltes escribió: The.Expendables.3.2014.DVDScr.LEAKED.CLEAN.XviD.MP3-RARBG Bajado de kick assConfirmado el FAKEEs una porno. Y la porno al menos esta buena?


Del montón...ya la borre


24/07/2014 06:19:34 pm 
       2                           
m@nul escribió:
CortoMaltes escribió: The.Expendables.3.2014.DVDScr.LEAKED.CLEAN.XviD.MP3-RARBG Bajado de kick assConfirmado el FAKEEs una porno. Y la porno al menos esta buena?





24/07/2014 06:41:10 pm 
       2                           
rubiopaul


Miembro desde: 24/01/2010

Threads abiertos: 175
Mensajes: 3018  
Subtítulos subidos: 0
Threads Favoritos: 0





cuando sale en latino?


24/07/2014 07:02:32 pm 
       4                           
rubiopaul escribió:
cuando sale en latino?


el fin de semana mas tardar el lunes






iimgurcom

3