Login

  

Bad johnson 2014 que pasaria si tu pene desaparece? XD





Thread creado por ARTEROTIK el 02/04/2014 11:31:21 pm. Lecturas: 2,488. Mensajes: 9. Favoritos: 1





02/04/2014 11:31:21 pm 
       5                           


Bad.Johnson.2014.HDRip.XviD.MP3-RARBG




Info:
Format : AVI
Format/Info : Audio Video Interleave
File size : 794 MiB
Duration : 1h 27mn
Overall bit rate : 1 267 Kbps
Movie name : Downloaded from RARBG.COM
Writing application : Lavf55.36.100
Comment : Downloaded from RARBG.COM

Video
ID : 0
Format : MPEG-4 Visual
Format profile : Simple@L5
Format settings, BVOP : No
Format settings, QPel : No
Format settings, GMC : No warppoints
Format settings, Matrix : Default (H.263)
Codec ID : XVID
Codec ID/Hint : XviD
Duration : 1h 27mn
Bit rate : 999 Kbps
Width : 720 pixels
Height : 400 pixels
Display aspect ratio : 16:9
Frame rate : 23.976 fps
Color space : YUV
Chroma subsampling : 4:2:0
Bit depth : 8 bits
Scan type : Progressive
Compression mode : Lossy
Bits/(PixelFrame) : 0.145
Stream size : 626 MiB (79%)
Writing library : Lavc55.55.104

Audio
ID : 1
Format : MPEG Audio
Format version : Version 1
Format profile : Layer 3
Mode : Joint stereo
Codec ID : 55
Codec ID/Hint : MP3
Duration : 1h 27mn
Bit rate mode : Constant
Bit rate : 256 Kbps
Channel(s) : 2 channels
Sampling rate : 44.1 KHz
Compression mode : Lossy
Stream size : 160 MiB (20%)
Alignment : Aligned on interleaves
Interleave, duration : 26 ms (0.63 video frame)



55 5



03/04/2014 10:27:18 am 
       0                           
ARTEROTIK escribió: Bad johnson 2014 que pasaria si tu pene desaparece? XD

Eso ya se ha visto...




03/04/2014 11:37:29 am 
       1                           
Agregado a Últimos estrenos - Abril. Saludos.


03/04/2014 03:00:40 pm 
       3                           
Literalmente qué poronga de pelicula


04/04/2014 12:29:03 am 
       2                           
No hay subtitulo en Inglés, si alguien lo encuentra páselo y me pongo a la tarea


04/04/2014 07:40:45 am 
       1                           
Thanks artero!!!...


04/04/2014 04:04:42 pm 
       0                           
carlocrace


Miembro desde: 18/05/2006

Threads abiertos: 26
Mensajes: 741  
Subtítulos subidos: 3
Threads Favoritos: 0





Gay-rullo no tiene problemas con eso...


19/04/2014 03:35:53 pm 
       2                           
yomeki


Miembro desde: 09/08/2007

Threads abiertos: 9
Mensajes: 241  
Subtítulos subidos: 0
Threads Favoritos: 0





ok alguien encontro los subs para esta peli porq ni en ingles los hallo


28/04/2014 04:51:11 am 
       1                           
en portugués quizás sirvan para traducir para quien sepa más lo único que hay




settings

3