Login

  

Silent Hill: Revelation 2012 WEB-DL 1080p TTLT





Thread creado por mxzerocool el 29/01/2013 06:37:28 pm. Lecturas: 2,108. Mensajes: 9. Favoritos: 1





29/01/2013 06:37:28 pm 
       4                           
mxzerocool


Miembro desde: 07/03/2005

Threads abiertos: 14
Mensajes: 41  
Subtítulos subidos: 4
Threads Favoritos: 0








Source: Sajlent.Hill.2.2012.D.WEB-DL.1080p.IRONCLUB.mkv removed russian track

General
Complete name : /Silent.Hill.Revelation.2012.WEB-DL.1080p.TTLT.mkv
Format : Matroska
File size : 3.24 GiB
Duration : 1h 34mn
Overall bit rate : 4 896 Kbps
Encoded date : UTC 2013-01-29 21:10:00
Writing application : mkvmerge v3.0.0 (Hang up your Hang-Ups) built on Dec 29 2009 00:24:14
Writing library : libebml v0.7.7 + libmatroska v0.8.1

Video
ID : 1
Format : AVC
Format/Info : Advanced Video Codec
Format profile : High@L4.0
Format settings, CABAC : Yes
Format settings, ReFrames : 5 frames
Codec ID : V_MPEG4/ISO/AVC
Duration : 1h 34mn
Bit rate : 4 414 Kbps
Width : 1 916 pixels
Height : 796 pixels
Display aspect ratio : 2.407
Frame rate : 23.976 fps
Resolution : 24 bits
Colorimetry : 4:2:0
Scan type : Progressive
Bits/(PixelFrame) : 0.121
Stream size : 2.92 GiB (90%)
Language : English

Audio
ID : 2
Format : AC-3
Format/Info : Audio Coding 3
Codec ID : A_AC3
Duration : 1h 34mn
Bit rate mode : Constant
Bit rate : 384 Kbps
Channel(s) : 6 channels
Channel positions : Front: L C R, Surround: L R, LFE
Sampling rate : 48.0 KHz
Stream size : 260 MiB (8%)
Title : DD 5.1 @ 384 kbps
Language : English

Text
ID : 3
Format : UTF-8
Codec ID : S_TEXT/UTF8
Codec ID/Info : UTF-8 Plain Text
Language : English

Screenshots:


44 4



29/01/2013 07:07:10 pm 
       0                           
Otra version: Silent Hill Revelation 2012 1080p WEB-DL DD5.1 H 264-NoGRP Size: 3.24 GiB












29/01/2013 09:09:03 pm 
       2                           
esperemos al bluray


29/01/2013 09:11:11 pm 
       1                           
mxzerocool


Miembro desde: 07/03/2005

Threads abiertos: 14
Mensajes: 41  
Subtítulos subidos: 4
Threads Favoritos: 0





lucas1208 escribió:
esperemos al bluray


En la madrugada de mañana sale, porque ya esta en stock en Dvdworldusa :P


29/01/2013 09:12:03 pm 
       1                           
lucas1208 escribió:
esperemos al bluray


o el 3d


29/01/2013 09:12:14 pm 
       2                           
gracias amigo me quedo esperando a la madrugada vamos


30/01/2013 01:02:47 am 
       2                           
gendo_ikari


Miembro desde: 11/10/2003

Threads abiertos: 29
Mensajes: 2496  
Subtítulos subidos: 0
Threads Favoritos: 0





yo siempre he sido fanatico de silent hill desde que salio en play station la pelicula anterior me gusto mucho, pero esta es mala pero malaaaa que no vale la pena descargarla mas de 700mb fue un insulto a lo que esperabamos no tanto como dragon ball pero si cerca


30/01/2013 11:08:24 am 
       1                           
Bajé esta versión Silent.Hill.Revelation.2012.1080p.WEB-DL.H264-CrazyHDSource [PublicHD] para probar la calidad del video y audio y la verdad que me sorprendió de lo muy buena que es...totalmente recomendable el release.
Los subtítulos que encajan perfectos para esta versión son estos


30/01/2013 12:21:32 pm 
       0                           
Esperemos el 700 mb, total, no sera para la Biblioteca del Congreso, ni para enviar a los ET en una sonda interestelar.




rate

3