Login

  

malcolm primera temporada + portada





Thread creado por MaNuR77 el 24/01/2013 09:41:49 pm. Lecturas: 2,028. Mensajes: 1. Favoritos: 0





24/01/2013 09:41:49 pm 
       2                           


General
Complete name : /media/01CCEEB8A0479260/Malcom/1.1 malcolm (piloto).mp4
Format : MPEG-4
Format profile : Base Media
Codec ID : isom
File size : 55.4 MiB
Duration : 25mn 31s
Overall bit rate mode : Variable
Overall bit rate : 303 Kbps
Encoded date : UTC 2009-08-08 20:02:51
Tagged date : UTC 2009-08-08 20:02:51

Video
ID : 1
Format : AVC
Format/Info : Advanced Video Codec
Format profile : High@L5.1
Format settings, CABAC : Yes
Format settings, ReFrames : 7 frames
Codec ID : avc1
Codec ID/Info : Advanced Video Coding
Duration : 25mn 31s
Bit rate : 268 Kbps
Maximum bit rate : 1 138 Kbps
Width : 640 pixels
Height : 480 pixels
Display aspect ratio : 4:3
Frame rate mode : Constant
Frame rate : 23.976 fps
Color space : YUV
Chroma subsampling : 4:2:0
Bit depth : 8 bits
Scan type : Progressive
Bits/(PixelFrame) : 0.036
Stream size : 48.9 MiB (88%)
Writing library : x264 core 56 svn-676
Encoding settings : cabac=1 / ref=4 / deblock=1:-2:-1 / analyse=0x3:0x133 / me=umh / subme=6 / brdo=1 / mixed_ref=1 / me_range=16 / chroma_me=1 / trellis=1 / 8x8dct=1 / cqm=0 / deadzone=21,11 / chroma_qp_offset=0 / threads=3 / nr=0 / decimate=1 / mbaff=0 / bframes=3 / b_pyramid=1 / b_adapt=1 / b_bias=0 / direct=1 / wpredb=1 / bime=1 / keyint=250 / keyint_min=25 / scenecut=40(pre) / rc=2pass / bitrate=268 / ratetol=1.0 / rceq=blurCplx^(1-qComp) / qcomp=0.60 / qpmin=10 / qpmax=51 / qpstep=4 / cplxblur=20.0 / qblur=0.5 / ip_ratio=1.40 / pb_ratio=1.30
Encoded date : UTC 2009-08-08 20:02:51
Tagged date : UTC 2009-08-08 20:02:54

Audio
ID : 2
Format : AAC
Format/Info : Advanced Audio Codec
Format profile : HE-AACv2 / HE-AAC / LC
Codec ID : 40
Duration : 25mn 31s
Bit rate mode : Variable
Bit rate : 32.0 Kbps
Maximum bit rate : 35.0 Kbps
Channel(s) : 2 channels / 1 channel / 1 channel
Channel positions : Front: L R / Front: C / Front: C
Sampling rate : 44.1 KHz / 44.1 KHz / 22.05 KHz
Compression mode : Lossy
Stream size : 5.84 MiB (11%)
Encoded date : UTC 2009-08-08 20:02:54
Tagged date : UTC 2009-08-08 20:02:54


si quieren comprarla vayan a una
bahia diferente

y la portada la pueden encontrar en
www.caratulasr4.tk
22 2





rate

3