Los mejores comentarios de AllEyezOnMe :: subdivx
  Login

  





Los mejores comentarios de AllEyezOnMe

Mensaje escrito por AllEyezOnMe el 11/04/2016 02:02:12 pm - Puntaje: 71 
[link]http://www.imdb.com/title/tt4062536/?ref_=nv_sr_1[/link][anchor_text]Green Room (2015)[/anchor_text] [image]http://www.filmaffinity.com/imgs/countries/US.jpg[/image] [image]http://pics.filmaffinity.com/Green_Room-907678591-large.jpg[/image] [youtube]http://www.youtube.com/watch?v=rU9jeOH35Sw[/youtube] Sinopsis: Los miembros de una banda punk, tras perderse en una zona aislada, se topan con un horrendo acto de violencia. Debido a que son los únicos testigos, se convierten en el blanco de una pandilla aterradora de skinheads. (FILMAFFINITY) Género: Thriller/Cine independiente EE. UU./Crímen. Reparto: Patrick Stewart, Anton Yelchin, Imogen Poots, Alia Shawkat, Mark Webber, Taylor Tunes, Joe Cole, Brent Werzner, October Moore, Cody Burns, Mason Knight, Eric Edelstein, Audrey Walker, Samuel Summer, Kasey Brown, Kai Lennox, Macon Blair. Director: Jeremy Saulnier. [image]http://4.bp.blogspot.com/-G0V7Xbd4pWg/UACIsTy9eOI/AAAAAAAAACk/G989HWKBK_c/s1600/img17.gif[/im
age] [link]http://www.imdb.com/title/tt3286052/?ref_=nv_sr_2[/link][anchor_text]February/The Black Coat’s Daughter (2015)[/anchor_text] [image]http://www.filmaffinity.com/imgs/countries/US.jpg[/image] [image]http://pics.filmaffinity.com/February-793370386-large.jpg[/image] [youtube]http://www.youtube.com/watch?v=nTyyT74CMaw[/youtube] Sinopsis: Joan. Kat. Rose. Tres chicas unidas por una serie de misteriosos eventos. Mientras Joan atraviesa carreteras heladas en medio de la noche, Kat y Rose esperan en una escuela femenina a que sus padres vengan a recogerlas por las vacaciones de invierno. A medida que los minutos pasan, una inquietante fatalidad se adueña del lugar. (FILMAFFINITY) Género: Terror. Reparto: Emma Roberts, Kiernan Shipka, Lauren Holly, James Remar, Lucy Boynton, Peter J. Gray, Emma Holzer, Matthew Stefiuk, Douglas Kidd, Donna St-Jean, Jodi Larratt. Director: Oz Perkins. [image]http://4.bp.blogspot.com/-G0V7Xbd4pWg/UACIsTy9eOI/AAAAAAAAACk/G989HWKBK_c/s1600/img17.gif[/im
age] [link]http://www.imdb.com/title/tt5127192/?ref_=fn_al_tt_1[/link][anchor_text]The Unkindness of Ravens (2015)[/anchor_text] [image]http://www.filmaffinity.com/imgs/countries/GB.jpg[/image] [image]http://www.dreadcentral.com/wp-content/uploads/2015/12/The-Unkindness-of-Ravens-Official-Post
er.jpg[/image] [youtube]http://www.youtube.com/watch?v=FPQmpR9Knws[/youtube] Sinopsis: Andrew (Jamie Scott Gordon) es un veterano de guerra sin hogar que desarrolla una fobia por los cuervos después de algunas visiones aterradoras relacionadas con el trastorno de estrés postraumático. Para ayudarse a sí mismo a librase de esa fobia, viaja a un retiro en las Tierras Altas de Escocia, donde descubre una fuerza sobrenatural conocida como los “Cuervos Guerreros”. (Bloody Disgusting!) Género: Terror/Drama. Reparto: David Izatt, Jamie Scott Gordon, Dougie Clark, Craig J. Seath, Iain Leslie, Andy McDonald, Amanda Gilliland, Nancy Joy Page, Benjamin Ferguson, Doug Robertson, D.T. Wilson, Mark Hunter, Raphael Zanders-McNeil, Leon Carrington. Director: Lawrie Brewster. [image]http://4.bp.blogspot.com/-G0V7Xbd4pWg/UACIsTy9eOI/AAAAAAAAACk/G989HWKBK_c/s1600/img17.gif[/im
age] [link]http://www.imdb.com/title/tt4335650/?ref_=nv_sr_1[/link][anchor_text]Carnage Park (2016)[/anchor_text] [image]http://www.filmaffinity.com/imgs/countries/US.jpg[/image] [image]http://pics.filmaffinity.com/Carnage_Park-478355359-large.jpg[/image] [image]http://i2.wp.com/bloody-disgusting.com/wp-content/uploads/2016/01/Carnage-Park.jpg?w=620[/ima
ge] Sinopsis: Después que el atraco a un banco sale mal, dos criminales de poca monta en fuga son cazados por un perturbado francotirador exmilitar, en un mortal juego del gato y el ratón. (Rotten Tomatoes) Género: Acción/Terror/Thriller. Reparto: Darby Stanchfield, Alan Ruck, Larry Fessenden, Ashley Bell, Pat Healy, James Landry Hébert, Bob Bancroft, Michael Villar, Graham Skipper, Andy Greene. Director: Mickey Keating. [image]http://4.bp.blogspot.com/-G0V7Xbd4pWg/UACIsTy9eOI/AAAAAAAAACk/G989HWKBK_c/s1600/img17.gif[/im
age] [link]http://www.imdb.com/title/tt4105970/?ref_=nv_sr_1[/link][anchor_text]They Look Like People (2015)[/anchor_text] [image]http://www.filmaffinity.com/imgs/countries/US.jpg[/image] [image]http://www.oaxacafilmfest.com/wp-content/uploads/2015/08/They-Look-Like-People-poster1.jpg[/i
mage] [youtube]http://www.youtube.com/watch?v=MrsUOmKlAzI[/youtube] Sinopsis: Sospechando que toda la gente a su alrededor se está convirtiendo en criaturas malignas, un hombre trastornado se cuestiona si proteger a su único amigo de una guerra inminente, o de él mismo. (Rotten Tomatoes) Género: Intriga/Terror. Reparto: MacLeod Andrews, Margaret Ying Drake, Evan Dumouchel. Director: Perry Blackshear. Ya disponible un HDRip. [image]http://4.bp.blogspot.com/-G0V7Xbd4pWg/UACIsTy9eOI/AAAAAAAAACk/G989HWKBK_c/s1600/img17.gif[/im
age] [link]http://www.imdb.com/title/tt4935372/?ref_=nv_sr_1[/link][anchor_text]The Devils Candy (2015)[/anchor_text] [image]http://www.filmaffinity.com/imgs/countries/US.jpg[/image] [image]http://image.tmdb.org/t/p/original//ioUpnS0M2lnst0Vmeech6WbPmRB.jpg[/image] [image]http://www.vimooz.com/wp-content/uploads/2015/10/The-Devils-Candy-Sean-Byrne.jpg[/image] Sinopsis: Un pintor es poseído por fuerzas satánicas luego de que él y su joven familia se mudan al hogar de sus sueños en la Texas rural, en este horripilante relato de una casa embrujada del director australiano Sean Byrne (The Loved Ones). (FILMAFFINITY) Género: Terror/Casas encantadas. Reparto: Shiri Appleby, Ethan Embry, Kiara Glasco, Mylinda Royer, Ash Thapliyal, Jamie Tisdale, Pruitt Taylor Vince, Orion West, Stan Taylor. Director: Sean Byrne. [image]http://4.bp.blogspot.com/-G0V7Xbd4pWg/UACIsTy9eOI/AAAAAAAAACk/G989HWKBK_c/s1600/img17.gif[/im
age] [link]http://www.imdb.com/title/tt3835080/?ref_=nv_sr_1[/link][anchor_text]31 (2016)[/anchor_text] [image]http://www.filmaffinity.com/imgs/countries/US.jpg[/image] [image]http://cdn.movieweb.com/img.site/PHJCv9kP3iwEMR_2_l.jpg[/image] [youtube]http://www.youtube.com/watch?v=CJtSjrSu6FI[/youtube] Sinopsis: Cinco personas son secuestradas en los días previos a Halloween y mantenidos como rehenes en un lugar llamado Murder World. Mientras están atrapados, deben jugar un juego violento llamado 31, donde la misión es sobrevivir 12 horas contra una pandilla de payasos malvados. (FILMAFFINITY) Género: Terror/Thriller. Reparto: Elizabeth Daily, Malcolm McDowell, Torsten Voges, Daniel Roebuck, Sheri Moon Zombie, Meg Foster, Lawrence Hilton-Jacobs, Devin Sidell, Judy Geeson, Ginger Lynn, David Ury, Esperanza America. Director: Rob Zombie. [image]http://4.bp.blogspot.com/-G0V7Xbd4pWg/UACIsTy9eOI/AAAAAAAAACk/G989HWKBK_c/s1600/img17.gif[/im
age] [link]http://www.imdb.com/title/tt4786282/?ref_=nv_sr_1[/link][anchor_text]Lights Out (2016)[/anchor_text] [image]http://www.filmaffinity.com/imgs/countries/US.jpg[/image] [image]http://pics.filmaffinity.com/Lights_Out-975149105-large.jpg[/image] [youtube]http://www.youtube.com/watch?v=FFrPPWAoQws[/youtube] Sinopsis: Una mujer es perseguida por una criatura que sólo aparece cuando las luces se apagan . Adaptación del corto de 2013, Lights Out , del mismo David F. Sandberg. (FILMAFFINITY) Género: Terror/Sobrenatural. Reparto: Teresa Palmer, Emily Alyn Lind, Alicia Vela-Bailey, Gabriel Bateman, Amiah Miller, Andi Osho, Maria Russell, Elizabeth Pan, Alexander DiPersia, Ava Cantrell, Rolando Boyce, Lotta Losten. Director: David F. Sandberg [image]http://4.bp.blogspot.com/-G0V7Xbd4pWg/UACIsTy9eOI/AAAAAAAAACk/G989HWKBK_c/s1600/img17.gif[/im
age] [link]http://www.imdb.com/title/tt4160708/?ref_=nv_sr_1[/link][anchor_text]Don’t Breathe (2016)[/anchor_text] [image]http://www.filmaffinity.com/imgs/countries/US.jpg[/image] [image]http://pics.filmaffinity.com/Don_t_Breathe-156920740-large.jpg[/image] Sinopsis: Un grupo de adolescentes creen haber encontrado la oportunidad de cometer el robo perfecto. Su objetivo será un ciego solitario poseedor de millones de dólares ocultos. Pero tan pronto como entran en su casa serán conscientes de su error, pues se encontrarán atrapados y luchando por sobrevivir contra un psicópata con sus propios y temibles secretos. (FILMAFFINITY) Género: Terror/Thriller. Reparto: Dylan Minnette, Jane Levy, Stephen Lang, Daniel Zovatto, Sergej Onopko, Jane May Graves, Jon Donahue, Katia Bokor, Christian Zagia, Emma Bercovici, Brak Little, Michael Haase. Director: Fede Álvarez. [image]http://4.bp.blogspot.com/-G0V7Xbd4pWg/UACIsTy9eOI/AAAAAAAAACk/G989HWKBK_c/s1600/img17.gif[/im
age] [link]http://www.imdb.com/title/tt4030600/?ref_=nv_sr_1[/link][anchor_text]The Bye Bye Man (2016)[/anchor_text] [image]http://www.filmaffinity.com/imgs/countries/US.jpg[/image] [image]http://pics.filmaffinity.com/The_Bye_Bye_Man-814923065-large.jpg[/image] [youtube]http://www.youtube.com/watch?v=UDPf9fZl4Bs[/youtube] Sinopsis: Adaptación de un cuento corto llamado “The Bridge to Body Island” de Robert Damon Schneck, la historia se centra en tres estudiantes universitarios de Wisconsin a quienes se les ocurrió el título “Bye Bye Man”. Aparte de esto, los detalles del argumento se encuentran actualmente en secreto. (FILMAFFINITY) Género: Terror/Thriller. Reparto: Douglas Smith, Lucien Laviscount, Cressida Bonas, Doug Jones, Michael Trucco, Faye Dunaway, Erica Tremblay, Cleo King, Marisa Echeverria, Jenna Kanell, Carrie-Anne Moss, Ava Penner, Seth William Meier, Dan Anders, Kurt Yue. Director: Stacy Title. [image]http://4.bp.blogspot.com/-G0V7Xbd4pWg/UACIsTy9eOI/AAAAAAAAACk/G989HWKBK_c/s1600/img17.gif[/im
age] [link]http://www.imdb.com/title/tt4094724/?ref_=nv_sr_1[/link][anchor_text]The Purge: Election Year (2016)[/anchor_text] [image]http://www.filmaffinity.com/imgs/countries/US.jpg[/image] [image]http://pics.filmaffinity.com/The_Purge_Election_Year-374964151-large.jpg[/image] [youtube]http://www.youtube.com/watch?v=vZ52I6nggio[/youtube] Sinopsis: Tercera entrega de la franquicia The Purge, tras The Purge. La noche de las bestias y Anarchy: La noche de las bestias. (FILMAFFINITY) Género: Acción/Terror/Ciencia Ficción. Reparto: Elizabeth Mitchell, Frank Grillo, Mykelti Williamson, Edwin Hodge, Joseph Julian Soria, Kyle Secor, Betty Gabriel. Director: James DeMonaco. [image]http://4.bp.blogspot.com/-G0V7Xbd4pWg/UACIsTy9eOI/AAAAAAAAACk/G989HWKBK_c/s1600/img17.gif[/im
age] [link]http://www.imdb.com/title/tt3065204/?ref_=nv_sr_1[/link][anchor_text]The Conjuring 2[/anchor_text] [image]http://www.filmaffinity.com/imgs/countries/US.jpg[/image] [image]http://i0.wp.com/bloody-disgusting.com/wp-content/uploads/2016/04/CJR2_1sht_Main_Vert_2764x40
96_DOM_master.jpg?resize=768%2C1138[/image] [youtube]http://www.youtube.com/watch?v=tMh1olDFWt8[/youtube] Sinopsis: Secuela de la exitosa Expediente Warren (2013), que lleva de nuevo a la pantalla otro caso real de los expedientes de los renombrados demonólogos Ed y Lorraine Warren. En este caso ambos viajarán al norte de Londres para ayudar a una madre soltera que tiene a su cargo cuatro hijos y que vive sola con ellos en una casa plagada de espíritus malignos. (FILMAFFINITY) Género: Terror. Reparto: Vera Farmiga, Patrick Wilson, Frances OConnor, Madison Wolfe, Lauren Esposito, Patrick McAuley, Benjamin Haigh, Maria Doyle Kennedy, Simon Delaney, Franka Potente, Simon McBurney. Director: James Wan.

Mensaje escrito por AllEyezOnMe el 27/11/2016 03:49:17 pm - Puntaje: 53 
[image]http://www.ole.com.ar/copa-america-centenario-2016/Numeros-Copa-Davis_OLEIMA20161127_0276_29.
jpg[/image] [image]http://images.clarin.com/deportes/tenis/argentinos-replicas-Copa-Davis-Reuter_CLAIMA20161127_
0144_43.jpg[/image] [image]http://www.ole.com.ar/tenis/Goza-Davis_OLEIMA20161127_0156_33.jpg[/image] [image]http://www.ole.com.ar/tenis/grito-Delpo-Zagreb_OLEIMA20161127_0129_33.jpg[/image] [image]http://images.clarin.com/deportes/tenis/Federico-Delbonis-festeja-Zagreb-DyN_CLAIMA20161127_0
136_44.jpg[/image] [image]http://cdn.playbuzz.com/cdn/b2619228-1d4e-4d04-8c08-9868894e722f/866d7b43-5001-4ccc-8f38-3218
02930130.jpg[/image] [image]http://www.ole.com.ar/bbtfile/6010_20161127VznN0T.gif[/image] [image]http://images.clarin.com/deportes/tenis/Davis-Foto-German-Garcia-Adrasti_CLAIMA20161127_0166_
44.jpg[/image] [image]http://www.crossed-flag-pins.com/animated-flag-gif/gifs/Argentina_240-animated-flag-gifs.gif[
/image][image]http://www.crossed-flag-pins.com/animated-flag-gif/gifs/Argentina_240-animated-flag-gi
fs.gif[/image]

Mensaje escrito por AllEyezOnMe el 11/05/2017 04:31:15 pm - Puntaje: 51 
[link]http://i0.wp.com/bloody-disgusting.com/wp-content/uploads/2017/05/text1.jpg?w=990[/link][ancho
r_text][image]http://i0.wp.com/bloody-disgusting.com/wp-content/uploads/2017/05/text1.jpg?w=990[/ima
ge][/anchor_text] [image]http://upload.wikimedia.org/wikipedia/commons/1/15/Farm-Fresh_magnifier.png[/image](CLICK SOBRE LA IMAGEN PARA AGRANDAR) [link]http://i1.wp.com/bloody-disgusting.com/wp-content/uploads/2017/05/text2.jpg?w=990[/link][ancho
r_text][image]http://i1.wp.com/bloody-disgusting.com/wp-content/uploads/2017/05/text2.jpg?w=990[/ima
ge][/anchor_text] [image]http://upload.wikimedia.org/wikipedia/commons/1/15/Farm-Fresh_magnifier.png[/image](CLICK SOBRE LA IMAGEN PARA AGRANDAR) [link]http://i2.wp.com/bloody-disgusting.com/wp-content/uploads/2017/05/text3.jpg?w=990[/link][ancho
r_text][image]http://i2.wp.com/bloody-disgusting.com/wp-content/uploads/2017/05/text3.jpg?w=990[/ima
ge][/anchor_text] [image]http://upload.wikimedia.org/wikipedia/commons/1/15/Farm-Fresh_magnifier.png[/image](CLICK SOBRE LA IMAGEN PARA AGRANDAR) [link]http://i2.wp.com/bloody-disgusting.com/wp-content/uploads/2017/05/text4.jpg?w=990[/link][ancho
r_text][image]http://i2.wp.com/bloody-disgusting.com/wp-content/uploads/2017/05/text4.jpg?w=990[/ima
ge][/anchor_text] [image]http://upload.wikimedia.org/wikipedia/commons/1/15/Farm-Fresh_magnifier.png[/image](CLICK SOBRE LA IMAGEN PARA AGRANDAR) [link]http://i2.wp.com/bloody-disgusting.com/wp-content/uploads/2017/05/text5.jpg?w=990[/link][ancho
r_text][image]http://i2.wp.com/bloody-disgusting.com/wp-content/uploads/2017/05/text5.jpg?w=990[/ima
ge][/anchor_text] [image]http://upload.wikimedia.org/wikipedia/commons/1/15/Farm-Fresh_magnifier.png[/image](CLICK SOBRE LA IMAGEN PARA AGRANDAR) [link]http://i1.wp.com/bloody-disgusting.com/wp-content/uploads/2017/05/text6.jpg?w=990[/link][ancho
r_text][image]http://i1.wp.com/bloody-disgusting.com/wp-content/uploads/2017/05/text6.jpg?w=990[/ima
ge][/anchor_text] [image]http://upload.wikimedia.org/wikipedia/commons/1/15/Farm-Fresh_magnifier.png[/image](CLICK SOBRE LA IMAGEN PARA AGRANDAR) [link]http://i1.wp.com/bloody-disgusting.com/wp-content/uploads/2017/05/text7.jpg?w=990[/link][ancho
r_text][image]http://i1.wp.com/bloody-disgusting.com/wp-content/uploads/2017/05/text7.jpg?w=990[/ima
ge][/anchor_text] [image]http://upload.wikimedia.org/wikipedia/commons/1/15/Farm-Fresh_magnifier.png[/image](CLICK SOBRE LA IMAGEN PARA AGRANDAR) [link]http://i1.wp.com/bloody-disgusting.com/wp-content/uploads/2017/05/text8.jpg?w=990[/link][ancho
r_text][image]http://i1.wp.com/bloody-disgusting.com/wp-content/uploads/2017/05/text8.jpg?w=990[/ima
ge][/anchor_text] [image]http://upload.wikimedia.org/wikipedia/commons/1/15/Farm-Fresh_magnifier.png[/image](CLICK SOBRE LA IMAGEN PARA AGRANDAR) [link]http://i1.wp.com/bloody-disgusting.com/wp-content/uploads/2017/05/text9.jpg?w=990[/link][ancho
r_text][image]http://i1.wp.com/bloody-disgusting.com/wp-content/uploads/2017/05/text9.jpg?w=990[/ima
ge][/anchor_text] [image]http://upload.wikimedia.org/wikipedia/commons/1/15/Farm-Fresh_magnifier.png[/image](CLICK SOBRE LA IMAGEN PARA AGRANDAR) [link]http://i2.wp.com/bloody-disgusting.com/wp-content/uploads/2017/05/text10.jpg?w=990[/link][anch
or_text][image]http://i2.wp.com/bloody-disgusting.com/wp-content/uploads/2017/05/text10.jpg?w=990[/i
mage][/anchor_text] [image]http://upload.wikimedia.org/wikipedia/commons/1/15/Farm-Fresh_magnifier.png[/image](CLICK SOBRE LA IMAGEN PARA AGRANDAR) [link]http://i1.wp.com/bloody-disgusting.com/wp-content/uploads/2017/05/text11.jpg?w=990[/link][anch
or_text][image]http://i1.wp.com/bloody-disgusting.com/wp-content/uploads/2017/05/text11.jpg?w=990[/i
mage][/anchor_text] [image]http://upload.wikimedia.org/wikipedia/commons/1/15/Farm-Fresh_magnifier.png[/image](CLICK SOBRE LA IMAGEN PARA AGRANDAR) [link]http://i1.wp.com/bloody-disgusting.com/wp-content/uploads/2017/05/text12.jpg?w=1920[/link][anc
hor_text][image]http://i1.wp.com/bloody-disgusting.com/wp-content/uploads/2017/05/text12.jpg?w=1920[
/image][/anchor_text] [image]http://upload.wikimedia.org/wikipedia/commons/1/15/Farm-Fresh_magnifier.png[/image](CLICK SOBRE LA IMAGEN PARA AGRANDAR) [link]http://i1.wp.com/bloody-disgusting.com/wp-content/uploads/2017/05/text13.jpg?w=1920[/link][anc
hor_text][image]http://i1.wp.com/bloody-disgusting.com/wp-content/uploads/2017/05/text13.jpg?w=1920[
/image][/anchor_text] [image]http://upload.wikimedia.org/wikipedia/commons/1/15/Farm-Fresh_magnifier.png[/image](CLICK SOBRE LA IMAGEN PARA AGRANDAR) [link]http://i1.wp.com/bloody-disgusting.com/wp-content/uploads/2017/05/text14.jpg?w=1687[/link][anc
hor_text][image]http://i1.wp.com/bloody-disgusting.com/wp-content/uploads/2017/05/text14.jpg?w=1687[
/image][/anchor_text] [image]http://upload.wikimedia.org/wikipedia/commons/1/15/Farm-Fresh_magnifier.png[/image](CLICK SOBRE LA IMAGEN PARA AGRANDAR) [link]http://i0.wp.com/bloody-disgusting.com/wp-content/uploads/2017/05/text15.jpg?w=1920[/link][anc
hor_text][image]http://i0.wp.com/bloody-disgusting.com/wp-content/uploads/2017/05/text15.jpg?w=1920[
/image][/anchor_text] [image]http://upload.wikimedia.org/wikipedia/commons/1/15/Farm-Fresh_magnifier.png[/image](CLICK SOBRE LA IMAGEN PARA AGRANDAR) [link]http://i1.wp.com/bloody-disgusting.com/wp-content/uploads/2017/05/text16.jpg?w=1649[/link][anc
hor_text][image]http://i1.wp.com/bloody-disgusting.com/wp-content/uploads/2017/05/text16.jpg?w=1649[
/image][/anchor_text] [image]http://upload.wikimedia.org/wikipedia/commons/1/15/Farm-Fresh_magnifier.png[/image](CLICK SOBRE LA IMAGEN PARA AGRANDAR) FUENTE: [link]http://bloody-disgusting.com/news/3436314/iconic-horror-posters-look-beautiful-text-removed/[/
link][anchor_text][image]http://i687.photobucket.com/albums/vv237/4-one/4-1/ICON-1/e-67.gif[/image][
/anchor_text]

Mensaje escrito por AllEyezOnMe el 13/03/2017 02:39:09 pm - Puntaje: 49 
[image]http://i0.wp.com/bloody-disgusting.com/wp-content/uploads/2017/03/SeoulStation_BR_2D.jpg?resi
ze=812%2C1024[/image] [image]http://www.gifmania.com/Gif-Animados-Web/Imagenes-Separadores-Web/Separadores-Web-Terror/Sepa
rador-Sangre-60417.gif[/image] Uno de los mejores films de terror del 2016 fue la película coreana Train to Busan. Su éxito trajo aparejado un nuevo proyecto, la película animada Seoul Station, precuela de Train to Busan, que llegará a las carteleras del Reino Unido el 17 de Marzo y tendrá su edición en DVD y Blu-ray el 3 de Abril. FilmRise ha adquirido los derechos para su lanzamiento en EE. UU., aunque aún no ha sido anunciada una fecha. Mientras que el sol se oculta alrededor de la Seul Station, un anciano que se pensaba que había fallecido, hunde sus dientes en la carne de una persona sin hogar. Pronto las calles se llenarán de viciosos zombies desesperados por alimentarse. Hae-sun, una fugitiva, es testigo de esta aterradora visión, mientras su padre y su novio la buscan desesperadamente. A medida que los atacados se convierten en atacantes el gobierno declara un bloqueo en la estación, abandonando a los no infectados luchar contra los peligrosos no-muertos. Con el número de zombies en alza, la gente se ve forzada a huir sin un rumbo fijo ni saber si sobrevivirán. En la oscura animación coreana, del mismo director de Train to Busan, Yeon Sang-ho, mira donde comenzó el horror… [image]http://www.gifmania.com/Gif-Animados-Web/Imagenes-Separadores-Web/Separadores-Web-Terror/Sepa
rador-Sangre-60417.gif[/image] [youtube]http://www.youtube.com/watch?v=xv_kW-IKgSk[/youtube] [image]http://www.gifmania.com/Gif-Animados-Web/Imagenes-Separadores-Web/Separadores-Web-Terror/Sepa
rador-Sangre-60417.gif[/image] [image]http://i0.wp.com/bloody-disgusting.com/wp-content/uploads/2017/03/Seoul_Station_01.png?resize
=1024%2C576[/image] [image]http://i1.wp.com/bloody-disgusting.com/wp-content/uploads/2017/03/Seoulstation_04.png?resize=
1024%2C576[/image] [image]http://i1.wp.com/bloody-disgusting.com/wp-content/uploads/2017/03/Seoulstation_10.png?resize=
1024%2C576[/image] [image]http://i1.wp.com/bloody-disgusting.com/wp-content/uploads/2017/03/Seoulstation_11.png?resize=
1024%2C576[/image] [image]http://i2.wp.com/bloody-disgusting.com/wp-content/uploads/2017/03/Seoulstation_13.png?resize=
1024%2C576[/image] [image]http://i2.wp.com/bloody-disgusting.com/wp-content/uploads/2017/03/Seoulstation_14.jpg?resize=
1024%2C576[/image] [image]http://i2.wp.com/bloody-disgusting.com/wp-content/uploads/2017/03/Seoulstation_17.png?resize=
1024%2C576[/image] [image]http://i2.wp.com/bloody-disgusting.com/wp-content/uploads/2017/03/Seoulstation_22.jpg?resize=
1024%2C576[/image] [image]http://i0.wp.com/bloody-disgusting.com/wp-content/uploads/2017/03/Seoulstation_25.jpg?resize=
1024%2C576[/image] [image]http://i1.wp.com/bloody-disgusting.com/wp-content/uploads/2017/03/Seoulstation_26.jpg?resize=
1024%2C576[/image] [image]http://i1.wp.com/bloody-disgusting.com/wp-content/uploads/2017/03/Seoulstation_27.png?resize=
1024%2C576[/image] [image]http://www.gifmania.com/Gif-Animados-Web/Imagenes-Separadores-Web/Separadores-Web-Terror/Sepa
rador-Sangre-60417.gif[/image] [image]http://avenidasims.com.mx/wp-content/uploads/2016/12/JR002.png[/image] [link]http://bloody-disgusting.com/home-video/3427778/hordes-zombies-new-seoul-station-images/[/link
][anchor_text]FUENTE[/anchor_text] [image]http://www.gifmania.com/Gif-Animados-Web/Imagenes-Separadores-Web/Separadores-Web-Terror/Sepa
rador-Sangre-60417.gif[/image] Versiones: [link]http://www.torrenters.com/bbs/board.php?bo_table=tr_ani&wr_id=786988&page=5[/link][anchor_text
]Seoul Station (BD 1920x1080 x.264 DTS-HDMA).mkv [Moozzi2][/anchor_text]

Mensaje escrito por AllEyezOnMe el 04/05/2016 03:38:03 pm - Puntaje: 45 
[image]http://i0.wp.com/bloody-disgusting.com/wp-content/uploads/2016/05/Alien-2.jpg?w=1920[/image] [image]http://i0.wp.com/bloody-disgusting.com/wp-content/uploads/2016/05/Alien.jpg?resize=700%2C1015
[/image] [image]http://i2.wp.com/bloody-disgusting.com/wp-content/uploads/2016/05/Beetlejuice.jpg?resize=700%
2C960[/image] [image]http://i0.wp.com/bloody-disgusting.com/wp-content/uploads/2016/05/Escape-from-NY.jpg?w=1280[/
image] [image]http://i2.wp.com/bloody-disgusting.com/wp-content/uploads/2016/05/Friday-the-13th.jpg?resize=
700%2C1028[/image] [image]http://i2.wp.com/bloody-disgusting.com/wp-content/uploads/2016/05/Fury-Road.jpg?resize=700%2C
970[/image] [image]http://i0.wp.com/bloody-disgusting.com/wp-content/uploads/2016/05/Ghostbusters.jpg?resize=747
%2C1024[/image] [image]http://i0.wp.com/bloody-disgusting.com/wp-content/uploads/2016/05/Halloween-3.jpg?resize=768%
2C1134[/image] [image]http://i0.wp.com/bloody-disgusting.com/wp-content/uploads/2016/05/The-Fog.jpg?resize=768%2C13
44[/image] [image]http://i2.wp.com/bloody-disgusting.com/wp-content/uploads/2016/05/The-Thing.jpg?resize=706%2C
1024[/image] Pintados por el artista Christopher Shy.

Mensaje escrito por AllEyezOnMe el 30/03/2017 03:55:28 pm - Puntaje: 37 
[image]http://i0.wp.com/bloody-disgusting.com/wp-content/uploads/2017/03/war-for-the-planet-.jpg?w=7
99[/image] [youtube]http://www.youtube.com/watch?v=lf7mAKFp0pI[/youtube] Sinopsis: César y sus monos son forzados a encarar un conflicto mortal contra un ejército de humanos liderado por un brutal coronel. Después de sufrir pérdidas enormes, César lucha con sus instintos más oscuros en una búsqueda por vengar a su especie. Cuando finalmente se encuentren, César y el Coronel protagonizarán una batalla que pondrá en juego el futuro de ambas especies y el del mismo planeta. Tercera película de la nueva saga de El Planeta de los Simios. (FILMAFFINITY) [image]http://i1.wp.com/bloody-disgusting.com/wp-content/uploads/2017/03/war-for-.jpg?resize=620%2C4
00[/image] [image]http://68.media.tumblr.com/52fba9e6d6208c95a2f504e964ee7e03/tumblr_onn7r3UOhT1qe4js1o2_400.gi
f[/image] [image]http://68.media.tumblr.com/14d8eb1fb93788e4a44449cde82bcf2f/tumblr_onn7r3UOhT1qe4js1o8_400.gi
f[/image] [image]http://68.media.tumblr.com/0f56b2e970208ec59caef78ad89a490f/tumblr_onn7r3UOhT1qe4js1o4_400.gi
f[/image] [image]http://68.media.tumblr.com/c5c66b71572de1d619cddab55deb71b8/tumblr_onn7r3UOhT1qe4js1o1_400.gi
f[/image] [image]http://68.media.tumblr.com/fb4b295b7ad779bd1a7005f037606254/tumblr_onn7r3UOhT1qe4js1o5_400.gi
f[/image] [image]http://68.media.tumblr.com/62a25a7d4c8da0a78e2547ae03e271b7/tumblr_onn7r3UOhT1qe4js1o6_400.gi
f[/image]

Mensaje escrito por AllEyezOnMe el 03/10/2016 10:58:47 am - Puntaje: 35 
[image]http://www.sensa-cine.com/wp-content/uploads/2016/06/Lights-Out.jpg[/image] [youtube]http://www.youtube.com/watch?v=FFrPPWAoQws[/youtube] Sinopsis: Rebecca es una joven que es perseguida desde niña por Diana, un ser extraño que sólo puede atacar en la oscuridad. El espíritu de Diana está relacionado con la madre de Rebecca. Ahora que se está convirtiendo en adulta, Diana va a por su hermano pequeño, Martin. Adaptación del corto de 2013, Lights Out , del mismo David F. Sandberg. (FILMAFFINITY) Versiones: Lights.Out.2016.WEB-DL.XviD.MP3-FGT 1.07 GB Lights.Out.2016.WEB-DL.XviD.AC3-FGT 1.17 GB Lights Out 2016 WEB-DL XviD AC3-EVO 1.41 GB Lights.Out.2016.720p.WEB-DL.XviD.AC3-FGT 2.69 GB Lights.Out.2016.1080p.WEB-DL.DD5.1.H264-FGT [image]http://cdn.imagecurl.com/images/36657206544337464814.png[/image] [image]http://cdn.imagecurl.com/images/38518628007432325510.png[/image] [image]http://cdn.imagecurl.com/images/52432184849957172498.png[/image] [image]http://cdn.imagecurl.com/images/21480756026201220918.png[/image] Video ID : 1 Format : AVC Format/Info : Advanced Video Codec Format profile : High@L4 Format settings, CABAC : Yes Format settings, ReFrames : 5 frames Codec ID : V_MPEG4/ISO/AVC Duration : 1h 20mn Bit rate : 4 507 Kbps Width : 1 916 pixels Height : 796 pixels Display aspect ratio : 2.40:1 Frame rate mode : Constant Frame rate : 23.976 fps Color space : YUV Chroma subsampling : 4:2:0 Bit depth : 8 bits Scan type : Progressive Bits/(PixelFrame) : 0.123 Stream size : 2.55 GiB (90%) Title : Lights.Out.2016.1080p.WEB-DL.DD5.1.H264-FGT Language : English Default : Yes Forced : No Color range : Limited Color primaries : BT.709 Transfer characteristics : BT.709 Matrix coefficients : BT.709 Audio ID : 2 Format : AC-3 Format/Info : Audio Coding 3 Mode extension : CM (complete main) Format settings, Endianness : Big Codec ID : A_AC3 Duration : 1h 20mn Bit rate mode : Constant Bit rate : 384 Kbps Channel(s) : 6 channels Channel positions : Front: L C R, Side: L R, LFE Sampling rate : 48.0 KHz Frame rate : 31.250 fps (1536 spf) Compression mode : Lossy Stream size : 222 MiB (8%) Title : Lights.Out.2016.1080p.WEB-DL.DD5.1.H264-FGT Language : English Default : Yes Forced : No Menu 00:00:00.000 : en:1 00:10:01.000 : en:2 00:21:07.000 : en:3 00:30:12.000 : en:4 00:40:57.000 : en:5 00:50:38.000 : en:6 00:58:43.000 : en:7 01:09:54.000 : en:8 01:16:20.000 : en:9 Lights.Out.2016.HDRip.XviD.AC3-EVO SOURCE: iTunes ViDEO: 2080 kbps XviD -2 Passes RESOLUTiON: 720x304 RUNTiME: 1h20m33sec SUBTiTLES: N/A AUDiO: 384 CBR AC-3 5.1 LANGUAGE: ENGLiSH GREETS: Srkfan & AQOS NOTES: Enjoy. Lights.Out.2016.720p.WEB-DL.H264.AC3-EVO SOURCE: iTunes ViDEO: 3990 Kbps - Untouched iTunes file RESOLUTiON: 1280x530 RUNTiME: 1h20m33sec SUBTiTLES: N/A AUDiO: 384 CBR AC-3 5.1 LANGUAGE: ENGLiSH GREETS: Srkfan & AQOS NOTES: Enjoy. Lights.Out.2016.1080p.WEB-DL.H264.AC3-EVO SOURCE: iTunes ViDEO: 4990 Kbps - Untouched iTunes file RESOLUTiON: 1912x796 RUNTiME: 1h20m33sec SUBTiTLES: N/A AUDiO: 384 CBR AC-3 5.1 LANGUAGE: ENGLiSH GREETS: Srkfan & AQOS NOTES: Enjoy.

Mensaje escrito por AllEyezOnMe el 31/12/2013 10:29:33 am - Puntaje: 31 
[image]http://24.media.tumblr.com/b21a27eb5a43c1f2eb504b38b481508f/tumblr_myocmnmbsJ1spqee3o1_250.gi
f[/image][image]http://25.media.tumblr.com/8f176abb0cc234af653b5b3a21dbf498/tumblr_myocmnmbsJ1spqee3
o2_250.gif[/image] [image]http://24.media.tumblr.com/730dbc1c09642beff8d6d847f4536f92/tumblr_myocyggpga1rjbwv6o5_250.gi
f[/image][image]http://25.media.tumblr.com/4d76347639892da98ddc05037692bc4d/tumblr_myocyggpga1rjbwv6
o1_250.gif[/image] FELIZ AÑO NUEVO!!!

Mensaje escrito por AllEyezOnMe el 03/03/2014 01:02:02 am - Puntaje: 31 
[image]http://www.cultjer.com/img/ug_photo/2014_01/The_Oscars_Nominations_Will_Be20140107173812.jpg[
/image] Mejor Película: [image]http://24.media.tumblr.com/1ee9172aad9be64f21b6ca8bdf0ed8cb/tumblr_n1ugh8VpZr1rm001ko8_r1_500
.jpg[/image] 12 Years a Slave American Hustle Gravity The Wolf of Wall Street Dallas Buyers Club Her Nebraska Philomena Captain Phillips Mejor Actor: [image]http://24.media.tumblr.com/1f6c285ab5cf4838582b2c947996c188/tumblr_n1ugh8VpZr1rm001ko7_500.jp
g[/image] Matthew McConaughey, Dallas Buyers Club Christian Bale, American Hustle Bruce Dern, Nebraska Leonardo DiCaprio, The Wolf of Wall Street Chiwetel Ejiofor, 12 Years a Slave Mejor Actríz: [image]http://25.media.tumblr.com/6e2e05e107a5aa57ff4ff94af37a23b0/tumblr_n1ugh8VpZr1rm001ko6_500.jp
g[/image] Cate Blanchett, Blue Jasmine Amy Adams, American Hustle Sandra Bullock, Gravity Judi Dench, Philomena Meryl Streep, August: Osage County Mejor Actor de Reparto: [image]http://24.media.tumblr.com/97dc4bb93795a8b17133b71fec64b011/tumblr_n1ugh8VpZr1rm001ko1_500.jp
g[/image] Jared Leto, Dallas Buyers Club Barkhad Abdi, Captain Phillips Bradley Cooper, American Hustle Michael Fassbender, 12 Years a Slave Jonah Hill, The Wolf of Wall Street Mejor Actríz de Reparto: [image]http://25.media.tumblr.com/61344bccc9c544c7a0d5c0a0baa78fd6/tumblr_n1ugh8VpZr1rm001ko3_500.jp
g[/image] Lupita Nyong’o, 12 Years a Slave Jennifer Lawrence, American Hustle Sally Hawkins, Blue Jasmine Julia Roberts, August: Osage County June Squibb, Nebraska Mejor Director: [image]http://24.media.tumblr.com/bb5b197a94ce799e0b5948c9544a9509/tumblr_n1ugh8VpZr1rm001ko5_500.jp
g[/image] Alfonso Cuarón, Gravity David O. Russell, American Hustle Steve McQueen, 12 Years a Slave Alexander Payne, Nebraska Martin Scorsese, The Wolf of Wall Street Mejor Guión Original: Spike Jonze, Her American Hustle Blue Jasmine Dallas Buyers Club Nebraska Mejor Guión Adaptado: John Ridley, 12 Years a Slave Before Midnight Captain Phillips Philomena The Wolf of Wall Street Mejor Canción Original: [image]http://31.media.tumblr.com/eb563204c226d656484515912ec5f7bb/tumblr_n1ugh8VpZr1rm001ko4_500.jp
g[/image] Let It Go from Frozen, Robert Lopez and Kristen Anderson-Lopez The Moon Song from Her, Karen O. and Spike Jonze Ordinary Love from Mandela: Long Walk to Freedom, U2 (Bono, The Edge, Adam Clayton, and Larry Mullen Jr.) and Danger Mouse (Brian Burton) Happy from Despicable Me 2, Pharrell Williams Mejor Banda Sonora: Steven Price, Gravity Alexandre Desplat, Philomena William Butler and Owen Pallett, Her John Williams, The Book Thief Thomas Newman, Saving Mr. Banks Mejor Diseño de Producción: Catherine Martin, Beverley Dunn, The Great Gatsby American Hustle Gravity Her 12 Years a Slave Mejor Edición: Alfonso Cuarón, Mark Sanger, Gravity 12 Years a Slave Captain Phillips American Hustle Dallas Buyers Club Mejor Fotografía: Emmanuel Lubezki, Gravity The Grandmaster Inside Llewyn Davis Nebraska Prisoners Mejor sonido: Glen Freemantle, Gravity Captain Phillips All Is Lost The Hobbit: The Desolation of Smaug Lone Survivor Mejor Película Extranjera: La Grande Bellezza The Broken Circle Breakdown Jagten aka The Hunt Limage manquante aka The Missing Picture Omar Mejor Película Documental: 20 Feet From Stardom The Act of Killing Cutie and the Boxer Dirty Wars The Square Mejor Cortometraje Documental: The Lady in Number 6: Music Saved My Life Cavedigger Facing Fear Karama Has No Walls Prison Terminal: Last Days of Private Jack Hall Mejor Cortometraje de Ficción: Helium Aquel No Era Yo (That Wasnt Me) Avant Que De Tout Perdre (Just Before Losing Everything) Pitaako Mun Kaikki Hoitaa? (Do I Have to Take Care of Everything?) The Voorman Problem Mejores Efectos Especiales: Tim Webber, Chris Lawrence, Dave Shirk, Neil Corbould, Gravity The Hobbit: The Desolation of Smaug Iron Man 3 The Lone Ranger Star Trek Into Darkness Mejor Film Animado: [image]http://25.media.tumblr.com/1505572d4d76691a7944a6545b9b0b87/tumblr_n1ugh8VpZr1rm001ko2_500.jp
g[/image] Frozen The Croods Despicable Me 2 Ernest and Celestine The Wind Rises Mejor Corto Animado: Mr. Hublot Feral Get a Horse! Possessions Room on the Broom Mejor Maquillaje: Dallas Buyers Club Bad Grandpa The Lone Ranger Mejor Diseño de Vestuario: Catherine Martin, The Great Gatsby The Grandmaster American Hustle The Invisible Woman 12 Years a Slave [image]http://trinipatdonia.files.wordpress.com/2014/03/bhxwutnceaateq6-1.jpg?w=652&h=366[/image]

Mensaje escrito por AllEyezOnMe el 23/02/2015 01:25:08 am - Puntaje: 30 
[image]http://oscaracademyawards.com/wp-content/uploads/2015/02/Nominations-and-Nominees-for-the-87t
h-Academy-Awards-Oscars1.jpg[/image] MEJOR PELÍCULA: [image]http://uploaddeimagens.com.br/images/000/453/079/original/BEST_PICTURE_1.jpg?1424664780[/imag
e][image]http://109.imagebam.com/download/cbeM3O7qwx4Sv5iTg_E58A/39075/390743605/BEST%20PICTURE%202.
jpeg[/image] [image]http://33.media.tumblr.com/081462de7adcf720050ce6805b8f0c72/tumblr_nk70wmHLm71r19feno5_500.gi
f[/image] “American Sniper” “Boyhood” “The Grand Budapest Hotel” “Selma” “The Theory of Everything” “Whiplash” MEJOR ACTOR: [image]http://uploaddeimagens.com.br/images/000/453/078/original/1%29_Actor_in_a_Leading_Role.jpg?14
24664651[/image] [image]http://38.media.tumblr.com/5493c7392ffc7106d4d3a2be6ecd2cc9/tumblr_nk70wmHLm71r19feno1_r1_500
.gif[/image] Steve Carell, “Foxcatcher” Bradley Cooper, “American Sniper” Benedict Cumberbatch, “The Imitation Game” Michael Keaton, “Birdman or (The Unexpected Virtue of Ignorance)” MEJOR ACTRÍZ: [image]http://uploaddeimagens.com.br/images/000/453/084/original/2%29_Actress_in_a_Leading_Role.jpg?
1424665019[/image] [image]http://33.media.tumblr.com/4fd37574156ca99e4306d58527dd6232/tumblr_nk70wmHLm71r19feno3_500.gi
f[/image] Marion Cotillard, “Two Days, One Night” Felicity Jones, “The Theory of Everything” Rosamund Pike, “Gone Girl” Reese Witherspoon, “Wild” MEJOR ACTOR SECUNDARIO: [image]http://uploaddeimagens.com.br/images/000/453/085/original/3%29_Actor_in_a_Supporting_Role.jpg
?1424665048[/image] [image]http://33.media.tumblr.com/bdc1f3bd3ecba9c08b4adbc967c14c5b/tumblr_njy0fx1bfj1r39p8wo5_500.gi
f[/image] Robert Duvall, “The Judge” Ethan Hawke, “Boyhood” Edward Norton, “Birdman or (The Unexpected Virtue of Ignorance)” Mark Ruffalo, “Foxcatcher” MEJOR ACTRÍZ SECUNDARIA: [image]http://uploaddeimagens.com.br/images/000/453/086/original/4%29_Actress_in_a_Supporting_Role.j
pg?1424665075[/image] [image]http://38.media.tumblr.com/36b5daf5c829edc550999947c1859474/tumblr_njzwdtUXhH1r39p8wo1_500.gi
f[/image] Laura Dern, “Wild” Keira Knightley, “The Imitation Game” Emma Stone, “Birdman or (The Unexpected Virtue of Ignorance)” Meryl Streep, “Into the Woods” MEJOR DIRECTOR: Alejandro G. Iñárritu, “Birdman or (The Unexpected Virtue of Ignorance)” [image]http://www.hollywoodreporter.com/sites/default/files/imagecache/675x380/2015/02/alejandro_g_i
narritu.jpg[/image] Richard Linklater, “Boyhood” Bennett Miller, “Foxcatcher” Wes Anderson, “The Grand Budapest Hotel” Morten Tyldum, “The Imitation Game” MEJOR GUION ORIGINAL: Alejandro G. Iñárritu, Nicolás Giacobone, Alexander Dinelaris Jr. y Armando Bo, “Birdman or (The Unexpected Virtue of Ignorance)” Richard Linklater, “Boyhood” E. Max Frye y Dan Futterman, “Foxcatcher” Wes Anderson, “The Grand Budapest Hotel” Dan Gilroy, “Nightcrawler” MEJOR GUION ADAPTADO: Jason Hall, “American Sniper” Graham Moore, “The Imitation Game” Paul Thomas Anderson, “Inherent Vice” Anthony McCarten, “The Theory of Everything” Damien Chazelle, “Whiplash” MEJOR CANCIÓN ORIGINAL: Everything Is Awesome de The Lego Movie, Shawn Patterson Glory de Selma, John Stephens y Lonnie Lynn Grateful de Beyond the Lights, Diane Warren Im Not Gonna Miss You de Glen Campbell…I’ll Be Me, Glen Campbell y Julian Raymond Lost Stars de Begin Again, Alexander y Danielle Brisebois MEJOR BANDA SONORA: Alexandre Desplat, “ The Grand Budapest Hotel” Alexandre Desplat, “The Imitation Game” Hans Zimmer, “Interstellar” Gary Yershon, “Mr. Turner” Jóhann Jóhannsson, “The Theory of Everything” MEJOR DISEÑO DE PRODUCCIÓN: Adam Stockhausen y Anna Pinnock, “The Grand Budapest Hotel” Maria Djurkovic y Tatiana Macdonald, “The Imitation Game” Nathan Crowley y Gary Fettis, “Interstellar” Dennis Gassner y Anna Pinnock, “Into the Woods” Suzie Davies y Charlotte Watts, “Mr. Turner” MEJOR MONTAJE FÍLMICO: Joel Cox y Gary D. Roach, “American Sniper” Sandra Adair, “Boyhood” Barney Pilling, “The Grand Budapest Hotel” William Goldenberg, “The Imitation Game” Tom Cross, “Whiplash” MEJOR FOTOGRAFÍA: Emmanuel Lubezki, “Birdman or (The Unexpected Virtue of Ignorance)” Robert Yeoman, “The Grand Budapest Hotel” Lukasz Zal y Ryszard Lenczewski, “Ida” Dick Pope“Mr. Turner” Roger Deakins, “Unbroken” MEJOR MONTAJE DE SONIDO: Alan Robert Murray y Bub Asman, “American Sniper” Martin Hernández y Aaron Glascock, “Birdman or (The Unexpected Virtue of Ignorance)” Brent Burge y Jason Canovas, “The Hobbit: The Battle of the Five Armies” Richard King, “Interstellar” Becky Sullivan y Andrew DeCristofaro, “Unbroken” MEJOR MEZCLA DE SONIDO: John Reitz, Gregg Rudloff and Walt Martin, “American Sniper” Jon Taylor, Frank A. Montaño y Thomas Varga, “Birdman or (The Unexpected Virtue of Ignorance)” Gary A. Rizzo, Gregg Landaker y Mark Weingarten, “Interstellar” Jon Taylor, Frank A. Montaño yDavid Lee, “Unbroken” Craig Mann, Ben Wilkins y Thomas Curley, “Whiplash” MEJOR PELÍCULA EXTRANJERA: [image]http://uploaddeimagens.com.br/images/000/453/083/original/FOREIGN_LANGUAGE_FILM1.jpg?14246649
70[/image] “Ida” (Polonia) “Leviafan” aka Leviathan (Rusia) “Mandariinid” aka Tangerines (Estonia) “Relatos Salvajes” (Argentina) “Timbuktu” (Francia/Mauritania) MEJOR DOCUMENTAL: “CitizenFour” “Finding Vivian Maier” “Last Days in Vietnam” “The Salt of the Earth” “Virunga” MEJOR CORTOMETRAJE DOCUMENTAL: “Crisis Hotline: Veterans Press 1” “Joanna” “Our Curse” “The Reaper (La Parka)” “White Earth” MEJOR CORTOMETRAJE: “Aya” “Boogaloo and Graham” “Butter Lamp (La Lampe au Beurre de Yak)” “Parvaneh” “The Phone Call” MEJORES EFECTOS ESPECIALES: Dan DeLeeuw, Russell Earl, Bryan Grill y Dan Sudick, “Captain America: The Winter Soldier” Joe Letteri, Dan Lemmon, Daniel Barrett y Erik Winquist, “Dawn of the Planet of the Apes” Stephane Ceretti, Nicolas Aithadi, Jonathan Fawkner y Paul Corbould, “Guardians of the Galaxy” Paul Franklin, Andrew Lockley, Ian Hunter y Scott Fisher, “Interstellar” Richard Stammers, Lou Pecora, Tim Crosbie y Cameron Waldbauer, “X-Men: Days of Future Past” MEJOR PELÍCULA ANIMADA: [image]http://uploaddeimagens.com.br/images/000/453/081/original/ANIMATED_FEATURE_FILM.jpg?142466485
8[/image] [image]http://38.media.tumblr.com/b3929f4764d99808902f1c087e9011c6/tumblr_nk6pyoKQgY1rzzqebo6_r1_500
.gif[/image] “The Boxtrolls” “How to Train Your Dragon 2” “Song of the Sea” “The Tale of the Princess Kaguya” MEJOR CORTOMETRAJE ANIMADO: “The Bigger Picture” “The Dam Keeper” “Feast” “Me and My Moulton” “A Single Life” MEJOR MAQUILLAJE Y PEINADO: Bill Corso and Dennis Liddiard , “Foxcatcher” Frances Hannon y Mark Coulier , “The Grand Budapest Hotel” Elizabeth Yianni-Georgiou y David White, “Guardians of the Galaxy” MEJOR DISEÑO DE VESTUARIO: Milena Canonero, “The Grand Budapest Hotel” Mark Bridges, “Inherent Vice” Colleen Atwood, “Into the Woods” Anna B. Sheppard, “Maleficent” Jacqueline Durran. “Mr. Turner” [link]http://oscar.go.com/nominees[/link][anchor_text]FUENTE[/anchor_text]

Mensaje escrito por AllEyezOnMe el 05/07/2014 02:11:28 pm - Puntaje: 28 
[image]http://i1171.photobucket.com/albums/r546/mnaflawless/tumblr_n88yeyZkWA1sefjuxo1_500_zps7acaa2
79.gif[/image] [image]http://i1171.photobucket.com/albums/r546/mnaflawless/5914061290_255876276f_zps4998bd7b.jpg[/i
mage]

Mensaje escrito por AllEyezOnMe el 10/05/2016 12:04:40 pm - Puntaje: 26 
[image]http://www.ew.com/sites/default/files/i/2016/05/06/outcast-key-art_final.jpg[/image] Outcast de Robert Kirkman, dirigida por Adam Wingard (quién hizo V/H/S, V/H/S/2, A Horrible Way to Die, The Guest, You’re Next y próximamente The Woods) se estrena el 3 de junio por Cinemax (aquí se podrá ver por FOX+) y la compañía ya anuncia una segunda temporada. Cinemax está revelando más, incluyendo un nuevo poster y tráiler que comparte mucho más material del lanzado previamente, se parece un poco a una versión moderna de The Exorcist, expandida en una serie. Kyle Barnes ha estado plagado de posesiones demoníacas toda su vida. Ahora, con la ayuda del Reverendo Anderson, un predicador con sus propios demonios personales, el joven se embarca en un viaje para encontrar respuestas y recuperar la vida normal que ha perdido. Pero lo que Kyle descubre podría cambiar su destino y el destino del mundo para siempre. Basado en el Comic de Skybound/Image creado por Robert Kirkman (The Walking Dead) y el artista Paul Azaceta, Patrick Fugit (Gone Girl, Almost Famous) estelariza como Barnes, un hombre en busca de respuestas y redención, quien aísla de sí mismo a aquellos que ama por miedo a causarles un gran daño. Philip Glenister (Life on Mars) en el papel del Reverendo Anderson, un evangelista de West Virginia, quien cree ser un soldado en la guerra sagrada de Dios contra las fuerzas del mal sobre la tierra. Un borracho empedernido y apostador, que no cree que Dios quiere que la gente se preocupe por las cosas pequeñas. Gabriel Bateman (Stalker) es Joshua Austin, un niño de 8 años que vive al otro lado de Kyle. Para el espanto de su familia, él parece estar en las garras de la posesión demoníaca, pero hay algo muy diferente acerca de su posesión y su conexión con Kyle Barnes. [image]http://www.blastr.com/sites/blastr/files/Outcast-Comic-Con-Poster-Cinemax.jpg[/image] Robert Kirkman se hizo famoso luego de que The Walking Dead se convirtiera en un éxito absoluto en el mundo de las series. A partir de allí, muchos fueron siguiendo sus otras novelas gráficas y su participación en las diversas convenciones. En junio de 2014 se publicó el primer número de Outcast. Escrito por Kirkman y dibujado por Paul Azaceta, hasta la fecha hay dieciocho ejemplares disponibles. Siguiendo lo dicho por Chris Black, productor ejecutivo, la serie se va a mantener fiel a la novela gráfica y si bien van a presentar algunas diferencias, la historia no va a sufrir demasiadas transformaciones. Junto con esto también contó que la serie no se va a adelantar al cómic y que los fanáticos no deberán temer a sufrir lo que sucede con Game of Thrones. Al contrario de The Walking Dead, el mundo de Outcast no se centra en una sociedad postapocalíptica que debe sobrevivir al ataque de monstruos y pone a prueba la verdadera humanidad de las personas. La historia está narrada en tiempo presente y en una sociedad que sufre manifestaciones sobrenaturales. El protagonista es Kyle Barnes quien, desde muy chico, estuvo cerca del fenómeno de las posesiones demoníacas. Él es quien va a acompañar al reverendo Anderson en la lucha contra los demonios y la búsqueda de una explicación sobre estas manifestaciones. Mientras el reverendo Anderson va a representar la faceta religiosa y relacionada con la fe, la faceta más racional va a verse representada en el jefe de policía Giles. A mediados del año pasado, FOX International anunció que Atticus Ross sería el responsable de componer la banda sonora para Outcast y llevar a la música la visión depravada y brillante de la historia de Robert Kirkman. Ross es un artista de música electrónica que fue sido reconocido por su trabajo junto a Trent Reznor en The Social Network, The Girl with the Dragon Tattoo y Gone Girl. [youtube]http://www.youtube.com/watch?v=aRwsSW-BhrE[/youtube] [youtube]http://www.youtube.com/watch?v=w2l7mnPVBEM[/youtube] [image]http://s32.postimg.org/hf2o41y1d/Outcast_logo.png[/image] (Si a alguien le interesa leer el comic. Colección casi completa 17/18 números en español) [link]http://howtoarsenio.blogspot.com.ar/2014/07/outcast.html[/link][anchor_text][image]http://www.
espae.espol.edu.ec/images/stories/clic-aqui.png[/image][/anchor_text] FUENTES: [link]http://bloody-disgusting.com/news/3390266/adam-wingards-outcast-trailer/[/link][anchor_text][i
mage]http://www.espae.espol.edu.ec/images/stories/clic-aqui.png[/image][/anchor_text] [link]http://www.rollingstone.com.ar/1891144-outcast-la-nueva-serie-de-robert-kirkman [/link][anchor_text][image]http://www.espae.espol.edu.ec/images/stories/clic-aqui.png[/image][/ancho
r_text]

Mensaje escrito por AllEyezOnMe el 03/10/2016 10:20:11 am - Puntaje: 25 
[image]http://66.media.tumblr.com/feb29de34c3b641c3d81f71d0a199123/tumblr_odvwhaIf0e1uvhnh7o6_250.gi
f[/image]

Mensaje escrito por AllEyezOnMe el 08/01/2014 04:55:11 pm - Puntaje: 24 
[image]http://31.media.tumblr.com/42b1b1bc5aad0c0fa3d4ea8987ec213d/tumblr_mscs9dwxWh1r85za6o1_250.gi
f[/image]

Mensaje escrito por AllEyezOnMe el 03/03/2014 03:15:14 pm - Puntaje: 23 
[image]http://24.media.tumblr.com/d2679d7c2a6d0c90319c293812dc9292/tumblr_n1up05Ddno1sjbdkao1_500.jp
g[/image] [image]http://25.media.tumblr.com/529cfe58d9d7c20c76134d086c76221a/tumblr_n1uhzdRUXR1rm05kho1_500.gi
f[/image][image]http://24.media.tumblr.com/f42ee2386e3e4ce675bf52c4679f8cbf/tumblr_n1uhzdRUXR1rm05kh
o2_500.gif[/image] [image]http://24.media.tumblr.com/32a94544577dc8d7f7a68d275584a157/tumblr_n1vk4suiE81scsy15o2_400.gi
f[/image]

Mensaje escrito por AllEyezOnMe el 05/03/2014 11:40:12 pm - Puntaje: 23 
TaMaBin, oraldo, mandrake_l, ealastor y gozilla2

Mensaje escrito por AllEyezOnMe el 26/05/2016 05:37:34 pm - Puntaje: 23 
[image]http://minionvilla.com/wp-content/uploads/2014/01/demonoid.jpg[/image] [image]http://socialnewsdaily.com/wp-content/uploads/2014/03/demonoid.jpg[/image] Uno de los trackers privados más populares tiene sus registros abiertos, es decir que no es necesario tener una invitación para crearse un usuario. Una de las mejores cosas que tiene Demonoid es que es ratioless, es decir que no importa el peso que tenga lo que se descarguen, no es obligación devolverlo para mantener el ratio 1:1. Aprovechen mientras dure. [link]http://www.demonoid.pw/[/link][anchor_text]Demonoid[/anchor_text]

Mensaje escrito por AllEyezOnMe el 24/05/2017 01:34:23 pm - Puntaje: 22 
[image]http://i2.wp.com/bloody-disgusting.com/wp-content/uploads/2017/04/strain22.jpg?w=843[/image] [youtube]http://www.youtube.com/watch?v=KyIurpR462c[/youtube] [image]http://i2.wp.com/bloody-disgusting.com/wp-content/uploads/2017/05/Screen-Shot-2017-05-11-at-2
.38.42-PM.jpg?w=1667[/image] [image]http://i0.wp.com/bloody-disgusting.com/wp-content/uploads/2017/05/Screen-Shot-2017-05-15-at-5
.06.16-PM.jpg?w=1664[/image] [image]http://i0.wp.com/bloody-disgusting.com/wp-content/uploads/2017/05/the-strain-finale.jpg?w=141
2[/image] [image]http://i2.wp.com/bloody-disgusting.com/wp-content/uploads/2017/05/Screen-Shot-2017-05-24-at-1
1.13.46-AM.jpg?w=1678[/image] The Strain vuelve este 16 de julio con su Cuarta y Última Temporada. [link]http://bloody-disgusting.com/tv/3438999/strain-gets-full-trailer-setting-beginning-end/[/link]
[anchor_text]FUENTE[/anchor_text]

Mensaje escrito por AllEyezOnMe el 15/10/2015 10:06:45 pm - Puntaje: 21 
[image]http://pop-break.com/wp-content/uploads/2015/09/Green-Inferno-poster.jpg[/image] [image]http://cdn.traileraddict.com/content/open-road-films/the_green_inferno-2.jpg[/image] Justine y sus idealistas compañeros activistas de Nueva York viajan a la selva en Perú para impedir la destrucción de una parte de la jungla por la tala de árboles que perturbe la vida de una tribu indígena local. Hasta aquí todo son buenas intenciones, que se torcerán cuando descubran que la tribu en cuestión es caníbal. (FILMAFFINITY) The Green Inferno - Official Trailer #1 [FULL HD] [youtube]http://www.youtube.com/watch?v=z8FjWbXcKa4[/youtube] The.Green.Inferno.2013.720p.WEB-DL.DD5.1.H264-RARBG 3.18 GB The.Green.Inferno.2015.720p.WEB-DL.DD5.1.H264-PLAYNOW 3.18 GB The.Green.Inferno.2013.720p.WEB-DL.XviD.AC3-RARBG 2.94 GB The.Green.Inferno.2013.WEB-DL.XviD.AC3-RARBG 1.40 GB The.Green.Inferno.2013.WEB-DL.XviD.MP3-RARBG 1.27 GB The.Green.Inferno.2013.720p.WEB-DL.DD5.1.H264-RARBG [image]http://imagecurl.com/images/76034303884257462250_thumb.png[/image] [image]http://imagecurl.com/images/26345407360996396739_thumb.png[/image] [image]http://imagecurl.com/images/15387192438694233076_thumb.png[/image] [image]http://imagecurl.com/images/81799790252898809687_thumb.png[/image] [image]http://imagecurl.com/images/14918131455826461775_thumb.png[/image] [image]http://imagecurl.com/images/38551861441890866437_thumb.png[/image] Video ID : 1 Format : AVC Format/Info : Advanced Video Codec Format profile : Main@L3.1 Format settings, CABAC : No Format settings, ReFrames : 2 frames Codec ID : V_MPEG4/ISO/AVC Duration : 1h 40mn Bit rate : 4 050 Kbps Width : 1 280 pixels Height : 532 pixels Display aspect ratio : 2.40:1 Frame rate mode : Constant Frame rate : 23.976 fps Color space : YUV Chroma subsampling : 4:2:0 Bit depth : 8 bits Scan type : Progressive Bits/(PixelFrame) : 0.248 Stream size : 2.85 GiB (90%) Title : The.Green.Inferno.2013.720p.WEB-DL.DD5.1.H264-RARBG Language : English Default : Yes Forced : No Color range : Limited Color primaries : BT.709 Transfer characteristics : BT.709 Matrix coefficients : BT.709 Audio ID : 2 Format : AC-3 Format/Info : Audio Coding 3 Mode extension : CM (complete main) Format settings, Endianness : Big Codec ID : A_AC3 Duration : 1h 40mn Bit rate mode : Constant Bit rate : 384 Kbps Channel(s) : 6 channels Channel positions : Front: L C R, Side: L R, LFE Sampling rate : 48.0 KHz Compression mode : Lossy Stream size : 276 MiB (8%) Title : The.Green.Inferno.2013.720p.WEB-DL.DD5.1.H264-RARBG Language : English Default : Yes Forced : No Menu 00:00:00.000 : en:Chapitre 01 00:10:00.000 : en:Chapitre 02 00:20:00.000 : en:Chapitre 03 00:30:00.000 : en:Chapitre 04 00:40:00.000 : en:Chapitre 05 00:50:00.000 : en:Chapitre 06 01:00:00.000 : en:Chapitre 07 01:10:00.000 : en:Chapitre 08 01:20:00.000 : en:Chapitre 09 01:30:00.000 : en:Chapitre 10 The.Green.Inferno.2015.720p.WEB-DL.DD5.1.H264-PLAYNOW Release Title: The Green Inferno 2015 720p WEB-DL DD5.1 H.264-PLAYNOW Release Date: 16.10.2015 Video…..: X264 4050Kbps Audio…..: English AC-3 384Kbps 6 channels Resolution: 1280×532 Size……: 3.18GB Subtitles: N/A Runtime…: 1h 40mn Source Used: 720p HD