Login

  





Los mejores comentarios de cgarcia1097

Mensaje escrito por cgarcia1097 el 13/01/2017 05:25:17 am - Puntaje: 35 
100.Streets.2016.1080p.WEB-DL.DD5.1.H264-FGT [image]http://i63.tinypic.com/11meyw6.jpg[/image] IMDB: http://www.imdb.com/title/tt2990126/ 3.25Gb IMDB: 5.3 de 10 de 341 usuarios Genero: Drama Plot: Tres personas, tres historias extraordinarias. Todos vivían dentro de un centenar de calles de Londres. Trailer: [youtube]fKdXcvusCMg[/youtube] [image]http://i65.tinypic.com/axg1ll.jpg[/image] Alone.in.Berlin.2016.1080p.WEB-DL.DD5.1.H264-FGT [image]http://i67.tinypic.com/2m4oykh.jpg[/image] IMDB: http://www.imdb.com/title/tt3026488/ 3.60 Gb IMDB: 6.1 de 10 de 332 usuarios Genero: Drama, Cine Belico Plot: Berlín, 1940. La pareja de la clase trabajadora Otto y Anna Quangel reciben la noticia de que su único hijo ha perdido la vida en el campo de batalla y decide resistirse al régimen nazi a su manera. Pronto la Gestapo está cazando la amenaza. Trailer: [youtube]S0mPmu6cTIo[/youtube] [image]http://i65.tinypic.com/axg1ll.jpg[/image] Bad.Kids.of.Crestview.Academy.2017.1080p.WEB-DL.DD5.1.H264-FGT [image]http://i65.tinypic.com/2ekols9.jpg[/image] IMDB: http://www.imdb.com/title/tt3349578/ 3.95 Gb IMDB: 9.2 de 10 de 06 usuarios Genero: Acción, Comedia, Triller Plot: LA DETENCIÓN CHUPA, PERO ES MUY DIVERTIDA: Son cuatro años más tarde, y un nuevo grupo de estudiantes ha sido puesto en detención el sábado en la infame y prestigiosa Academia Crestview. Cuando Siouxsie, estudiante de segundo año undercrust, bloquea la fiesta para vengar la muerte de su hermana, una detención de sábado reservada para los privilegiados de la Academia Crestview se convierte en una cita en el infierno. No pasará mucho tiempo antes de que un ingenuo amante de un gatito, un traficante de drogas gay, una hija de predicador caliente, un hijo de senador chirriante y el extraño joven no invitado se encuentren encerrados en la escuela sin salida, preguntándose quién (o qué) hacia arriba. La hilaridad y el suspenso se producen mientras cada niño malo se enfrenta uno al otro, y uno a uno caen víctimas de accidentes absurdamente espantosos al tratar de escapar. (Basado en la secuela de novela gráfica más vendida Bad Kids Go 2 Hell.) Trailer: [youtube]cg__-y5q2pE[/youtube] [image]http://i65.tinypic.com/axg1ll.jpg[/image] Claire.in.Motion.2016.1080p.WEB-DL.DD5.1.H264-FGT [image]http://i67.tinypic.com/25pmvro.jpg[/image] IMDB: http://www.imdb.com/title/tt5432114/ 2.91 Gb IMDB: 7.4 de 10 de 34 usuarios Genero: Drama Plot: Claire está segura de sí misma, de su trabajo y de su familia, hasta que - como un mal sueño - su marido desaparece, dejando un rastro de misteriosos secretos que rompen su certidumbre. Trailer: [youtube]BiEZhmUqnVw[/youtube] [image]http://i65.tinypic.com/axg1ll.jpg[/image] Go.North.2017.1080p.WEB-DL.DD5.1.H264-FGT [image]http://i64.tinypic.com/24465c3.jpg[/image] IMDB: http://www.imdb.com/title/tt4960764/ 3.62 Gb IMDB: de 10 esperando evaluación de al menos 5 usuarios Genero: Drama, Romance Plot: Dentro de unos años, sucederá algo que cambiará nuestro mundo. Un evento global que causa pandemonio, caos y muerte. La vida tal como la conocemos nunca será la misma. Atrás quedan edificios abandonados, calles vacías, y otros dolorosos recordatorios de un ayer mejor. No queda un solo adulto, víctimas de esta catástrofe global. Los únicos supervivientes son los adolescentes y los niños, viviendo en las calles en la cáscara ahuecada de una ciudad una vez grande. Este es su mundo ahora. Ellos hacen sus propias reglas y hacen cumplir sus propias leyes. Algunos simplemente intentan sobrevivir, mientras que otros gobiernan por la fuerza. Trailer: [youtube]Qky2s7wyK-M[/youtube] [image]http://i65.tinypic.com/axg1ll.jpg[/image] 48.Hours.to.Live.2016.1080p.WEB-DL.DD5.1.H264-FGT aka Wild for the Night (2016) [image]http://i66.tinypic.com/142y2k6.jpg[/image] IMDB: www.imdb.com/title/tt2948530/ 3.48 Gb IMDB: 7.0 de 10 de 41 usuarios Genero: Crimen, Musical, Triller Plot: Un híbrido 3D que combina los géneros de cine negro, danza y misterio. Un solitario recién salido de rehabilitación y cazado por ambos lados de la ley regresa a casa para resolver el asesinato de su hermana, y se encuentra enredado en un juego de venganza en el circuito de club de Los Ángeles. Trailer: [youtube]KYvx5jrkQCI[/youtube] [image]http://i65.tinypic.com/axg1ll.jpg[/image] The.Book.of.Love.2016.1080p.WEB-DL.DD5.1.H264-FGT aka The Devil and the Deep Blue Sea (2016) [image]http://i67.tinypic.com/2u6l36b.jpg[/image] IMDB: http://www.imdb.com/title/tt1330018/ 3.68 Gb IMDB: 5.4 de 10 de 159 usuarios Genero: Drama Plot: Henry es un arquitecto introvertido. Después de la muerte de su esposa en un accidente de coche, se propuso ayudar a Millie, un adolescente sin hogar, para construir una balsa para navegar a través del Atlántico. Trailer: [youtube]T7Z6sgLSpN0[/youtube] [image]http://i65.tinypic.com/axg1ll.jpg[/image] The.Crash.2017.1080p.WEB-DL.DD5.1.H264-FGT [image]http://i66.tinypic.com/2utp35t.jpg[/image] IMDB: http://www.imdb.com/title/tt3297382/ 2.94Gb IMDB: 6.8 de 10 de 6 usuarios Genero: Crimer, Triller Plot: En un futuro no tan lejano, un equipo de criminales de cuello blanco es reclutado por el gobierno federal para frustrar un ataque cibernético que amenaza con la quiebra de los Estados Unidos de América. Trailer: [youtube]ws8UuwXPxsE[/youtube] [image]http://i65.tinypic.com/axg1ll.jpg[/image] The.Last.King.2015.1080p.WEB-DL.DD5.1.H264-FGT [image]http://i65.tinypic.com/21mc70y.jpg[/image] IMDB: http://www.imdb.com/title/tt1830848/ 4.33Gb IMDB: 5.0 de 10 de 42 usuarios Genero: Acción, Drama, Historia Plot: Hace 150 Años Los británicos (Reina) tomaron algo que no les pertenece. No tiene precio, es orgullo, es dignidad. Hoy, Él quiere recuperarlo a toda costa. Trailer: [youtube]m0k5hWlt8uw[/youtube]

Mensaje escrito por cgarcia1097 el 23/08/2016 01:41:21 am - Puntaje: 22 
Genius.2016.1080p.WEB-DL [image]http://i63.tinypic.com/514u85.jpg[/image] Genius.2016.1080p.WEB-DL.DD5.1.H264-FGT Video ID : 1 Format : AVC Format/Info : Advanced Video Codec Format profile : High@L4 Format settings, CABAC : Yes Format settings, ReFrames : 5 frames Codec ID : V_MPEG4/ISO/AVC Duration : 1h 43mn Bit rate : 4 362 Kbps Width : 1 912 pixels Height : 796 pixels Display aspect ratio : 2.40:1 Frame rate mode : Constant Frame rate : 23.976 (24000/1001) fps Color space : YUV Chroma subsampling : 4:2:0 Bit depth : 8 bits Scan type : Progressive Bits/(PixelFrame) : 0.120 Stream size : 3.16 GiB (90%) Title : Genius.2016.1080p.WEB-DL.DD5.1.H264-FGT Language : English Default : Yes Forced : No Color range : Limited Color primaries : BT.709 Transfer characteristics : BT.709 Matrix coefficients : BT.709 Audio ID : 2 Format : AC-3 Format/Info : Audio Coding 3 Mode extension : CM (complete main) Format settings, Endianness : Big Codec ID : A_AC3 Duration : 1h 43mn Bit rate mode : Constant Bit rate : 384 Kbps Channel(s) : 6 channels Channel positions : Front: L C R, Side: L R, LFE Sampling rate : 48.0 KHz Frame rate : 31.250 fps (1536 spf) Compression mode : Lossy Stream size : 285 MiB (8%) Title : Genius.2016.1080p.WEB-DL.DD5.1.H264-FGT Language : English Default : Yes Forced : No Text ID : 3 Format : UTF-8 Codec ID : S_TEXT/UTF8 Codec ID/Info : UTF-8 Plain Text Language : English Default : Yes Forced : No Menu 00:00:00.000 : en:1 00:09:26.000 : en:2 00:20:30.000 : en:3 00:29:57.000 : en:4 00:40:38.000 : en:5 00:52:09.000 : en:6 01:01:32.000 : en:7 01:11:04.000 : en:8 01:21:26.000 : en:9 01:31:28.000 : en:10 01:37:15.000 : en:11 Caps: [image]http://i67.tinypic.com/2mfalxl.jpg[/image] [image]http://i68.tinypic.com/2r4pgqr.jpg[/image] [image]http://i65.tinypic.com/2qcmb5s.jpg[/image] [image]http://i68.tinypic.com/14kuxg.jpg[/image] [image]http://i65.tinypic.com/63uhs4.jpg[/image] [image]http://i67.tinypic.com/6f82dz.jpg[/image] PLOT: Una crónica de los tiempos de Max Perkins como el editor de libros de Scribner, donde supervisó las obras de Thomas Wolfe, Ernest Hemingway, F. Scott Fitzgerald y otros. IMDB: [link]http://www.imdb.com/title/tt1703957/[/link][anchor_text]http://www.imdb.com/title/tt1703957/[/
anchor_text] GENERO: Biography , Drama RANKING: 6.9 /10 de 1020 usuarios Trailer: [youtube]4TN4W7PO-24[/youtube] [youtube]kZn1Dxzam3w[/youtube]

Mensaje escrito por cgarcia1097 el 20/04/2017 01:30:11 am - Puntaje: 21 
Gracias de todo Buen deseo, de corazón.

Mensaje escrito por cgarcia1097 el 18/12/2015 04:36:15 pm - Puntaje: 20 
Sicario.2015. [image]http://i63.tinypic.com/msce42.jpg[/image] Sicario.2015.720p.BluRay.x264-SPARKS Sicario.2015.720p.BluRay.x264-SPARKS Release.Date: 18.12.2015 Video.......: X264 4516Kbps Frame.Rate..: 23.976 Resolution..: 1280x536 Audio.......: AC-3 640Kbps 6ch Language....: English Length......: 2h 1mn Source......: Retail BluRay Size........: 4472MB Subtitles...: English File Name................................................................................................
.Size RARBG.com.txt.......................................................................................
.0.03 KB Sicario.2015.720p.BluRay.x264-SPARKS.mkv.......................................4.37 GB Subs/Sicario.2015.720p.BluRay.x264-SPARKS.idx..............................97.19 KB Subs/Sicario.2015.720p.BluRay.x264-SPARKS.sub............................13.18 MB sicario.2015.720p.bluray.x264-sparks.jpg................................................4.98 KB sicario.2015.720p.bluray.x264-sparks.nfo...............................................4.21 KB [image]http://i63.tinypic.com/9k6ro9.jpg[/image] http://imdb.com/title/tt3397884/ Ranking: 8.0 /10 de 47,437 usuarios Genero: Action , Crime , Drama , Mystery , Thriller Plot: Un agente del FBI idealista es alistado por un grupo de trabajo de gobierno elegido para ayudar en la creciente guerra contra las drogas en la zona de la frontera entre los EE.UU. y México. Trailer: [youtube]2kcDt-TN914[/youtube] [youtube]C8h2Br7-Njk[/youtube]

Mensaje escrito por cgarcia1097 el 05/07/2017 11:25:50 pm - Puntaje: 19 
Ghost.In.The.Shell.2017.720p.WEB-DL.DD5.1.H264-FGT 3.32 GB 24.000FPS Ghost.in.the.Shell.2017.1080p.WEB-DL.DD5.1.H264-STRiFE 4.05 GB 23.976FPS Ghost.In.The.Shell.2017.WEB-DL.XviD.MP3-FGT 1.34 GB 24.000FPS Ghost.In.The.Shell.2017.WEB-DL.XviD.AC3-FGT 1.48 GB 24.000FPS Ghost.In.The.Shell.2017.720p.WEB-DL.XviD.AC3-FGT 3.12 GB 24.000FPS Ghost.In.The.Shell.2017.WEB-DL.x264-FGT 947.37 MB 24.000FPS Ghost.In.The.Shell.2017.720p.WEB-DL.H264.AC3-EVO 3.32 GB 23.976FPS Ghost In The Shell 2017 WEB-DL XviD AC3-EVO 1.38 GB 23.976FPS AUDIO LATINO: [link]http://tiemposmafufos.com/169-audios-latinos/21607-ghost-in-the-shell-2017-solo-audio-latino-a
c3-5-1-extraido-del-web-dl[/link][anchor_text]GHOST IN THE SHELL (2017) SOLO AUDIO LATINO [AC3 5.1] [EXTRAIDO DEL WEB-DL][/anchor_text] [image]http://i66.tinypic.com/2zovvpw.jpg[/image] Información IMDB: [link]http://imdb.com/title/tt1219827/[/link][anchor_text]tt1219827[/anchor_text] Título: Ghost.In.The.Shell.2017. Género: Action , Crime , Drama , Mystery , Sci-Fi , Thriller. Duración: 01:47 hrs at 24.000 fps (720p FGT)-01:47hrs at 23.976 (1080p STRiFE) Director: Rupert Sanders. Guión: Shirow Masamune (based on the comic The Ghost in the Shell by), Jamie Moss. Reparto: Scarlett Johansson, Pilou Asbæk, Takeshi Kitano... Sinopsis Basada en la internacionalmente aclamada saga de ciencia ficción, Ghost in the Shell narra la historia de the Major, un híbrido cyborg-humano femenino único en su especie, de operaciones especiales, que dirige un grupo operativo de elite llamado Sección 9. Consagrada a detener a los extremistas y criminales más peligrosos, la Sección 9 se enfrenta a un enemigo cuyo objetivo principal consiste en anular los avances de Hanka Robotic en el campo de la ciber-tecnología. (Abandomoviez) [-] Hide MediaInfo Video ID : 1 Format : AVC Format/Info : Advanced Video Codec Format profile : High@L3.1 Format settings, CABAC : No Format settings, ReFrames : 2 frames Codec ID : V_MPEG4/ISO/AVC Duration : 1 h 47 min Bit rate : 3 964 kb/s Width : 1 280 pixels Height : 720 pixels Display aspect ratio : 16:9 Frame rate mode : Constant Frame rate : 24.000 FPS Color space : YUV Chroma subsampling : 4:2:0 Bit depth : 8 bits Scan type : Progressive Bits/(PixelFrame) : 0.179 Stream size : 2.97 GiB (89%) Title : Ghost.In.The.Shell.2017.720p.WEB-DL.DD5.1.H264-FGT Language : English Default : Yes Forced : No Color range : Limited Color primaries : BT.709 Transfer characteristics : BT.709 Matrix coefficients : BT.709 Audio ID : 2 Format : AC-3 Format/Info : Audio Coding 3 Format settings, Endianness : Big Codec ID : A_AC3 Duration : 1 h 47 min Bit rate mode : Constant Bit rate : 384 kb/s Channel(s) : 6 channels Channel positions : Front: L C R, Side: L R, LFE Sampling rate : 48.0 kHz Frame rate : 31.250 FPS (1536 spf) Bit depth : 16 bits Compression mode : Lossy Stream size : 294 MiB (9%) Title : Ghost.In.The.Shell.2017.720p.WEB-DL.DD5.1.H264-FGT Language : English Service kind : Complete Main Default : Yes Forced : No Menu 00:00:00.000 : en:1 00:08:08.000 : en:2 00:14:38.000 : en:3 00:21:24.000 : en:4 00:28:00.000 : en:5 00:34:10.000 : en:6 00:39:24.000 : en:7 00:43:54.000 : en:8 00:51:45.000 : en:9 00:55:13.000 : en:10 01:01:02.000 : en:11 01:07:43.000 : en:12 01:14:31.000 : en:13 01:20:26.000 : en:14 01:27:40.000 : en:15 01:33:34.000 : en:16 01:37:53.000 : en:17 [image]http://i68.tinypic.com/r1yfyf.jpg[/image] [image]http://i63.tinypic.com/35d493r.jpg[/image] [image]http://i68.tinypic.com/4zz0y1.jpg[/image] [image]http://i64.tinypic.com/21jdor7.jpg[/image] [image]http://i63.tinypic.com/14buw61.jpg[/image] [image]http://i63.tinypic.com/vopwe9.jpg[/image] Ghost.In.The.Shell.2017.720p.WEB-DL.DD5.1.H264-FGT 3.32 Gb Ghost.in.the.Shell.2017.1080p.WEB-DL.DD5.1.H264-STRiFE 4.05 GB [link]http://www.subdivx.com/X6XNTA2Njg0X-ghost-in-the-shell-2017.html[/link][anchor_text]SUBS PARA Ghost.In.The.Shell.2017.720p.WEB-DL.DD5.1.H264-FGT POR el MAESTRO antillan0 INCLUIDOS FORZADOS para audios latinos, at 24.000 fps[/anchor_text] [link]http://www.subdivx.com/X6XNTA2NjcwX-ghost-in-the-shell-2017.html[/link][anchor_text]SUBS PARA Ghost In The Shell 2017 720p WEB-DL H264 AC3-EVO POR la MAESTRA TAMABIN INCLUIDOS FORZADOS, at 23.976fps[/anchor_text]

Mensaje escrito por cgarcia1097 el 23/08/2016 01:42:11 am - Puntaje: 18 
The.Darkness.2016.1080p.WEB-DL. [image]http://i65.tinypic.com/zvd1qf.jpg[/image] The.Darkness.2016.1080p.WEB-DL.DD5.1.H264-FGT Video ID : 1 Format : AVC Format/Info : Advanced Video Codec Format profile : High@L4 Format settings, CABAC : Yes Format settings, ReFrames : 5 frames Codec ID : V_MPEG4/ISO/AVC Duration : 1h 32mn Bit rate : 4 239 Kbps Width : 1 916 pixels Height : 800 pixels Display aspect ratio : 2.40:1 Frame rate mode : Constant Frame rate : 23.976 fps Color space : YUV Chroma subsampling : 4:2:0 Bit depth : 8 bits Scan type : Progressive Bits/(PixelFrame) : 0.115 Stream size : 2.74 GiB (90%) Title : The.Darkness.2016.1080p.WEB-DL.DD5.1.H264-FGT Language : English Default : Yes Forced : No Color range : Limited Color primaries : BT.709 Transfer characteristics : BT.709 Matrix coefficients : BT.709 Audio ID : 2 Format : AC-3 Format/Info : Audio Coding 3 Mode extension : CM (complete main) Format settings, Endianness : Big Codec ID : A_AC3 Duration : 1h 32mn Bit rate mode : Constant Bit rate : 384 Kbps Channel(s) : 6 channels Channel positions : Front: L C R, Side: L R, LFE Sampling rate : 48.0 KHz Frame rate : 31.250 fps (1536 spf) Compression mode : Lossy Stream size : 254 MiB (8%) Title : The.Darkness.2016.1080p.WEB-DL.DD5.1.H264-FGT Language : English Default : Yes Forced : No Text ID : 3 Format : UTF-8 Codec ID : S_TEXT/UTF8 Codec ID/Info : UTF-8 Plain Text Language : English Default : Yes Forced : No Menu 00:00:00.000 : en:1 00:04:43.000 : en:2 00:09:01.000 : en:3 00:15:43.000 : en:4 00:22:22.000 : en:5 00:26:38.000 : en:6 00:30:05.000 : en:7 00:35:43.000 : en:8 00:39:27.000 : en:9 00:44:00.000 : en:10 00:50:40.000 : en:11 00:55:17.000 : en:12 00:59:01.000 : en:13 01:02:46.000 : en:14 01:06:53.000 : en:15 01:11:20.000 : en:16 01:15:01.000 : en:17 01:20:06.000 : en:18 01:26:04.000 : en:19 01:27:30.000 : en:20 Pics: [image]http://i63.tinypic.com/qn7bqx.jpg[/image] [image]http://i67.tinypic.com/30s7i3q.jpg[/image] [image]http://i63.tinypic.com/2cyjj2o.jpg[/image] [image]http://i68.tinypic.com/5mem2t.jpg[/image] [image]http://i63.tinypic.com/11t0wug.jpg[/image] [image]http://i68.tinypic.com/21m4ze0.jpg[/image] PLOT: Una familia regresa de unas vacaciones en Gran Cañón, frecuentado por una antigua entidad sobrenatural que, sin saberlo, ellos despiertan y los involucra en una lucha por su supervivencia. IMDB:[link]http://www.imdb.com/title/tt1878841/[/link][anchor_text]http://www.imdb.com/title/tt18788
41/[/anchor_text] GENERO: Horror , Thriller RANKING: 4.2 / 10 de 2,984 usuarios Trailer: [youtube]EGB_bJ_8tHY[/youtube]

Mensaje escrito por cgarcia1097 el 30/08/2016 01:42:16 am - Puntaje: 17 
The.Neon.Demon.2016.1080p.WEB-DL.DD5.1.H264-FGT [image]http://i64.tinypic.com/jfb3ag.jpg[/image] The.Neon.Demon.2016.1080p.WEB-DL.DD5.1.H264-FGT Video ID : 1 Format : AVC Format/Info : Advanced Video Codec Format profile : High@L4 Format settings, CABAC : Yes Format settings, ReFrames : 5 frames Codec ID : V_MPEG4/ISO/AVC Duration : 1h 57mn Bit rate : 4 387 Kbps Width : 1 916 pixels Height : 800 pixels Display aspect ratio : 2.40:1 Frame rate mode : Constant Frame rate : 23.976 (24000/1001) fps Color space : YUV Chroma subsampling : 4:2:0 Bit depth : 8 bits Scan type : Progressive Bits/(PixelFrame) : 0.119 Stream size : 3.61 GiB (90%) Title : The.Neon.Demon.2016.1080p.WEB-DL.DD5.1.H264-FGT Language : English Default : Yes Forced : No Color range : Limited Color primaries : BT.709 Transfer characteristics : BT.709 Matrix coefficients : BT.709 Audio ID : 2 Format : AC-3 Format/Info : Audio Coding 3 Mode extension : CM (complete main) Format settings, Endianness : Big Codec ID : A_AC3 Duration : 1h 57mn Bit rate mode : Constant Bit rate : 384 Kbps Channel(s) : 6 channels Channel positions : Front: L C R, Side: L R, LFE Sampling rate : 48.0 KHz Frame rate : 31.250 fps (1536 spf) Compression mode : Lossy Stream size : 323 MiB (8%) Title : The.Neon.Demon.2016.1080p.WEB-DL.DD5.1.H264-FGT Language : English Default : Yes Forced : No Text ID : 3 Format : UTF-8 Codec ID : S_TEXT/UTF8 Codec ID/Info : UTF-8 Plain Text Language : English Default : Yes Forced : No Menu 00:00:00.000 : en:Chapter 1 00:07:27.000 : en:Chapter 2 00:15:43.000 : en:Chapter 3 00:21:05.000 : en:Chapter 4 00:26:36.000 : en:Chapter 5 00:30:33.000 : en:Chapter 6 00:36:39.000 : en:Chapter 7 00:43:15.000 : en:Chapter 8 00:50:39.000 : en:Chapter 9 00:56:43.000 : en:Chapter 10 01:04:58.000 : en:Chapter 11 01:09:24.000 : en:Chapter 12 01:17:38.000 : en:Chapter 13 01:23:37.000 : en:Chapter 14 01:31:53.000 : en:Chapter 15 01:41:10.000 : en:Chapter 16 01:47:28.000 : en:Chapter 17 01:51:56.000 : en:Chapter 18 CAPS: [image]http://i65.tinypic.com/167l45j.jpg[/image] [image]http://i66.tinypic.com/4j15s5.jpg[/image] [image]http://i65.tinypic.com/i1zqfp.jpg[/image] [image]http://i65.tinypic.com/307nv2d.jpg[/image] [image]http://i68.tinypic.com/67k4z7.jpg[/image] [image]http://i65.tinypic.com/2wfk17b.jpg[/image] IMDB: [link]http://imdb.com/title/tt1974419/[/link][anchor_text]IMDB LINK[/anchor_text] PLOT: Cuando la aspirante a modelo Jesse se muda a Los Ángeles, su juventud y vitalidad son devorados por un grupo de bellas-obsesionadas mujeres que tomarán cualquier medio necesario para conseguir lo que tiene. GENERO: Horror, Thriller RANKING: 7.0/10 de 10677 usuarios ACTORES: Elle Fanning , Christina Hendricks , Keanu Reeves , Karl Glusman , Jena Malone , Bella Heathcote , Abbey Lee , Desmond Harrington , Charles Baker , Jamie Clayton , Stacey Danger , Rebecca Dayan , Helen Wilson , Houda Shretah , Taylor Marie Hill TRAILER: [youtube]zM0ojfll-bA[/youtube]

Mensaje escrito por cgarcia1097 el 26/08/2016 02:02:08 am - Puntaje: 16 
Blood.Father.2016.1080p WEB-DL.DD5.1 [image]http://i64.tinypic.com/2m7zqx3.jpg[/image] Blood.Father.2016.1080p.WEB-DL.DD5.1.H264-FGT Video ID : 1 Format : AVC Format/Info : Advanced Video Codec Format profile : High@L4 Format settings, CABAC : Yes Format settings, ReFrames : 5 frames Codec ID : V_MPEG4/ISO/AVC Duration : 1h 28mn Bit rate : 4 548 Kbps Width : 1 912 pixels Height : 792 pixels Display aspect ratio : 2.40:1 Frame rate mode : Constant Frame rate : 23.976 (24000/1001) fps Color space : YUV Chroma subsampling : 4:2:0 Bit depth : 8 bits Scan type : Progressive Bits/(PixelFrame) : 0.125 Stream size : 2.80 GiB (90%) Title : Blood.Father.2016.1080p.WEB-DL.DD5.1.H264-FGT Language : English Default : Yes Forced : No Color range : Limited Color primaries : BT.709 Transfer characteristics : BT.709 Matrix coefficients : BT.709 Audio ID : 2 Format : AC-3 Format/Info : Audio Coding 3 Mode extension : CM (complete main) Format settings, Endianness : Big Codec ID : A_AC3 Duration : 1h 28mn Bit rate mode : Constant Bit rate : 384 Kbps Channel(s) : 6 channels Channel positions : Front: L C R, Side: L R, LFE Sampling rate : 48.0 KHz Frame rate : 31.250 fps (1536 spf) Compression mode : Lossy Stream size : 242 MiB (8%) Title : Blood.Father.2016.1080p.WEB-DL.DD5.1.H264-FGT Language : English Default : Yes Forced : No Text ID : 3 Format : UTF-8 Codec ID : S_TEXT/UTF8 Codec ID/Info : UTF-8 Plain Text Language : English Default : Yes Forced : No Menu 00:00:00.000 : en:1 00:01:08.000 : en:2 00:10:19.000 : en:3 00:19:57.000 : en:4 00:28:58.000 : en:5 00:38:44.000 : en:6 00:48:47.000 : en:7 00:57:47.000 : en:8 01:07:52.000 : en:9 01:14:47.000 : en:10 01:22:13.000 : en:11 Caps: [image]http://i63.tinypic.com/2ic8yds.jpg[/image] [image]http://i68.tinypic.com/2emg47p.jpg[/image] [image]http://i65.tinypic.com/34y1p50.jpg[/image] [image]http://i68.tinypic.com/xdh7wy.jpg[/image] [image]http://i66.tinypic.com/alkww2.jpg[/image] [image]http://i68.tinypic.com/103xwzr.jpg[/image] IMDB: [link]http://imdb.com/title/tt3647498/[/link][anchor_text]tt3647498[/anchor_text] PLOT: Un ex convicto se reúne con su hija discola distanciada de 16 años para protegerla de los traficantes de drogas que están tratando de matarla. RANKING: 8.4 de 1244 usuarios GENERO: Action , Thriller TRAILER: [youtube]7gyQOERiq6o[/youtube]

Mensaje escrito por cgarcia1097 el 04/04/2017 01:15:21 am - Puntaje: 16 
Split.2016.1080p.WEB-DL.DD5.1.H264-FGT [image]http://i68.tinypic.com/2m7vgj6.jpg[/image] Video ID : 1 Format : AVC Format/Info : Advanced Video Codec Format profile : High@L4 Format settings, CABAC : Yes Format settings, ReFrames : 5 frames Codec ID : V_MPEG4/ISO/AVC Duration : 1h 57mn Bit rate : 4 428 Kbps Width : 1 916 pixels Height : 800 pixels Display aspect ratio : 2.40:1 Frame rate mode : Constant Frame rate : 23.976 (24000/1001) fps Color space : YUV Chroma subsampling : 4:2:0 Bit depth : 8 bits Scan type : Progressive Bits/(PixelFrame) : 0.120 Stream size : 3.62 GiB (90%) Title : Split.2016.1080p.WEB-DL.DD5.1.H264-FGT Language : English Default : Yes Forced : No Color range : Limited Color primaries : BT.709 Transfer characteristics : BT.709 Matrix coefficients : BT.709 Audio ID : 2 Format : AC-3 Format/Info : Audio Coding 3 Mode extension : CM (complete main) Format settings, Endianness : Big Codec ID : A_AC3 Duration : 1h 57mn Bit rate mode : Constant Bit rate : 384 Kbps Channel(s) : 6 channels Channel positions : Front: L C R, Side: L R, LFE Sampling rate : 48.0 KHz Frame rate : 31.250 fps (1536 spf) Compression mode : Lossy Stream size : 322 MiB (8%) Title : Split.2016.1080p.WEB-DL.DD5.1.H264-FGT Language : English Default : Yes Forced : No Text ID : 3 Format : UTF-8 Codec ID : S_TEXT/UTF8 Codec ID/Info : UTF-8 Plain Text Language : English Default : Yes Forced : No Menu 00:00:00.000 : en:1 00:06:09.452 : en:2 00:14:20.025 : en:3 00:20:50.373 : en:4 00:24:15.536 : en:5 00:28:38.048 : en:6 00:35:48.978 : en:7 00:42:36.385 : en:8 00:49:07.067 : en:9 00:54:10.412 : en:10 01:00:25.495 : en:11 01:06:23.561 : en:12 01:12:32.221 : en:13 01:19:36.770 : en:14 01:25:26.828 : en:15 01:29:17.558 : en:16 01:34:09.224 : en:17 01:40:46.996 : en:18 01:47:41.285 : en:19 01:52:27.738 : en:20 [image]http://imagecurl.com/images/19821108815640052500_thumb.png[/image] [image]http://imagecurl.com/images/29937024759830461200_thumb.png[/image] [image]http://imagecurl.com/images/69325942533078034094_thumb.png[/image] [image]http://imagecurl.com/images/75563208696973605615_thumb.png[/image] [image]http://imagecurl.com/images/96386797262854940250_thumb.png[/image] [image]http://imagecurl.com/images/07028891116657898485_thumb.png[/image]

Mensaje escrito por cgarcia1097 el 12/07/2017 01:56:14 am - Puntaje: 16 
Ghost.in.the.Shell.2017.1080p/720p.BluRay.x264-DRONES Releases: Ghost.in.the.Shell.2017.720p.BRRip.XviD.AC3-RARBG 3.33 GB Ghost.in.the.Shell.2017.BRRip.XviD.AC3-RARBG 1.54 GB Ghost.in.the.Shell.2017.BRRip.XviD.MP3-RARBG 1.36 GB Ghost.in.the.Shell.2017.BDRip.x264-DRONES 636.89 MB Ghost.in.the.Shell.2017.720p.BluRay.x264-DRONES 4.38 GB Ghost.in.the.Shell.2017.720p.BluRay.H264.AAC-RARBG 1.30 GB [image]http://i66.tinypic.com/2zovvpw.jpg[/image] Información IMDB: [link]http://imdb.com/title/tt1219827/[/link][anchor_text]tt1219827[/anchor_text] Título: Ghost.In.The.Shell.2017. Género: Action , Crime , Drama , Mystery , Sci-Fi , Thriller. Duración: 01:47 hrs at 24.000 fps (720p FGT)-01:47hrs at 23.976 (1080p STRiFE) Director: Rupert Sanders. Guión: Shirow Masamune (based on the comic The Ghost in the Shell by), Jamie Moss. Reparto: Scarlett Johansson, Pilou Asbæk, Takeshi Kitano... Sinopsis Basada en la internacionalmente aclamada saga de ciencia ficción, Ghost in the Shell narra la historia de the Major, un híbrido cyborg-humano femenino único en su especie, de operaciones especiales, que dirige un grupo operativo de elite llamado Sección 9. Consagrada a detener a los extremistas y criminales más peligrosos, la Sección 9 se enfrenta a un enemigo cuyo objetivo principal consiste en anular los avances de Hanka Robotic en el campo de la ciber-tecnología. (Abandomoviez) [-] Hide MediaInfo Video ID : 1 Format : AVC Format/Info : Advanced Video Codec Format profile : High@L4.1 Format settings, CABAC : Yes Format settings, ReFrames : 5 frames Codec ID : V_MPEG4/ISO/AVC Duration : 1h 46mn Bit rate : 5 210 Kbps Width : 1 280 pixels Height : 720 pixels Display aspect ratio : 16:9 Frame rate mode : Constant Frame rate : 23.976 fps Color space : YUV Chroma subsampling : 4:2:0 Bit depth : 8 bits Scan type : Progressive Bits/(PixelFrame) : 0.236 Stream size : 3.89 GiB (89%) Writing library : x264 core 150 r2833 df79067 Encoding settings : cabac=1 / ref=5 / deblock=1:0:0 / analyse=0x3:0x133 / me=umh / subme=7 / psy=1 / psy_rd=1.00:0.00 / mixed_ref=1 / me_range=16 / chroma_me=1 / trellis=1 / 8x8dct=1 / cqm=0 / deadzone=21,11 / fast_pskip=0 / chroma_qp_offset=-2 / threads=22 / lookahead_threads=3 / sliced_threads=0 / nr=0 / decimate=1 / interlaced=0 / bluray_compat=0 / constrained_intra=0 / bframes=3 / b_pyramid=2 / b_adapt=1 / b_bias=0 / direct=1 / weightb=1 / open_gop=0 / weightp=2 / keyint=250 / keyint_min=23 / scenecut=40 / intra_refresh=0 / rc_lookahead=40 / rc=2pass / mbtree=1 / bitrate=5210 / ratetol=1.0 / qcomp=0.60 / qpmin=0 / qpmax=69 / qpstep=4 / cplxblur=20.0 / qblur=0.5 / ip_ratio=1.40 / aq=1:1.00 Language : English Default : Yes Forced : No Audio ID : 2 Format : AC-3 Format/Info : Audio Coding 3 Mode extension : CM (complete main) Format settings, Endianness : Big Codec ID : A_AC3 Duration : 1h 46mn Bit rate mode : Constant Bit rate : 640 Kbps Channel(s) : 6 channels Channel positions : Front: L C R, Side: L R, LFE Sampling rate : 48.0 KHz Frame rate : 31.250 fps (1536 spf) Compression mode : Lossy Stream size : 490 MiB (11%) Language : English Default : Yes Forced : No Menu 00:00:00.000 : en:00:00:00.000 00:08:09.322 : en:00:08:09.322 00:14:39.962 : en:00:14:39.962 00:21:26.494 : en:00:21:26.494 00:28:02.681 : en:00:28:02.681 00:34:13.218 : en:00:34:13.218 00:39:27.615 : en:00:39:27.615 00:43:57.802 : en:00:43:57.802 00:51:49.815 : en:00:51:49.815 00:55:19.066 : en:00:55:19.066 01:01:06.872 : en:01:01:06.872 01:07:49.732 : en:01:07:49.732 01:14:36.972 : en:01:14:36.972 01:20:31.744 : en:01:20:31.744 01:27:46.178 : en:01:27:46.178 01:33:41.407 : en:01:33:41.407 01:38:00.083 : en:01:38:00.083 [image]http://i68.tinypic.com/r1yfyf.jpg[/image] [image]http://i63.tinypic.com/35d493r.jpg[/image] [image]http://i68.tinypic.com/4zz0y1.jpg[/image] [image]http://i64.tinypic.com/21jdor7.jpg[/image] [image]http://i63.tinypic.com/14buw61.jpg[/image] [image]http://i63.tinypic.com/vopwe9.jpg[/image]

Mensaje escrito por cgarcia1097 el 28/06/2016 01:35:30 am - Puntaje: 14 
Batman.v.Superman.Dawn.of.Justice.2016.Ultimate.Edition.1080p.WEB-DL.DD5.1.H264-RARBG [image]http://i63.tinypic.com/1sm55l.jpg[/image] Category: Movies/x264/1080 Size: 6.22 GB Show/Hide Files: 5 files Added: 2016-06-28 06:29:38 Title: Batman v Superman: Dawn of Justice (2016) IMDB Rating: 7.0/10 from 307004 users Updated : 2016-06-28 Rotten Rating: 4.9/10 Genres: Action , Adventure , Sci-Fi Actors: Ben Affleck , Henry Cavill , Amy Adams , Jesse Eisenberg , Diane Lane , Laurence Fishburne , Jeremy Irons , Holly Hunter , Gal Gadot , Scoot McNairy , Callan Mulvey , Tao Okamoto , Brandon Spink , Lauren Cohan , Alan D. Purwin Director: Zack Snyder Runtime: 151 Year: 2016 Plot: The General public is controversial over having superman on their planet and letting the dark knight pursue the streets of Gotham. And while this is happening a power-phobic batman tries to attack superman meanwhile superman tries to settle on a decision and Lex Luther a millionaire tries to use his own advantages to fight the man of steel. Rotten Plot: Batman v Superman: Dawn of Justice smothers a potentially powerful story and some of Americas most iconic superheroes in a grim whirlwind of effects-driven action. Hits: 19901 Seeders : 134 , Leechers : 5937 = 6071 Hit&Run: 96% [image]http://i65.tinypic.com/2dv23hl.jpg[/image] [image]http://i67.tinypic.com/5mizvn.jpg[/image] [image]http://i64.tinypic.com/20fri4i.jpg[/image] [image]http://i68.tinypic.com/2u5tagk.jpg[/image] [image]http://i66.tinypic.com/2ntgqrr.jpg[/image] [image]http://i63.tinypic.com/9bcfhy.jpg[/image] Video ID : 1 Format : AVC Format/Info : Advanced Video Codec Format profile : High@L4 Format settings, CABAC : Yes Format settings, ReFrames : 5 frames Codec ID : V_MPEG4/ISO/AVC Duration : 3h 2mn Bit rate : 4 397 Kbps Width : 1 916 pixels Height : 796 pixels Display aspect ratio : 2.40:1 Frame rate mode : Constant Frame rate : 23.976 fps Color space : YUV Chroma subsampling : 4:2:0 Bit depth : 8 bits Scan type : Progressive Bits/(PixelFrame) : 0.120 Stream size : 5.61 GiB (90%) Title : Batman.v.Superman.Dawn.of.Justice.2016.Ultimate.Edition.1080p.WEB-DL.DD5.1.H264-RARBG Language : English Default : Yes Forced : No Color range : Limited Color primaries : BT.709 Transfer characteristics : BT.709 Matrix coefficients : BT.709 Audio ID : 2 Format : AC-3 Format/Info : Audio Coding 3 Mode extension : CM (complete main) Format settings, Endianness : Big Codec ID : A_AC3 Duration : 3h 2mn Bit rate mode : Constant Bit rate : 384 Kbps Channel(s) : 6 channels Channel positions : Front: L C R, Side: L R, LFE Sampling rate : 48.0 KHz Frame rate : 31.250 fps (1536 spf) Compression mode : Lossy Stream size : 501 MiB (8%) Title : Batman.v.Superman.Dawn.of.Justice.2016.Ultimate.Edition.1080p.WEB-DL.DD5.1.H264-RARBG Language : English Default : Yes Forced : No Text ID : 3 Format : UTF-8 Codec ID : S_TEXT/UTF8 Codec ID/Info : UTF-8 Plain Text Language : English Default : Yes Forced : No Menu 00:00:00.000 : en:1 00:10:08.000 : en:2 00:27:00.000 : en:3 00:37:49.000 : en:4 00:46:54.000 : en:5 01:02:04.000 : en:6 01:14:10.000 : en:7 01:28:07.000 : en:8 01:41:46.000 : en:9 01:53:52.000 : en:10 02:02:58.000 : en:11 02:15:03.000 : en:12 02:27:54.000 : en:13 02:36:51.000 : en:14 02:48:17.000 : en:15 02:54:44.000 : en:16 RELEASES: [image]http://i63.tinypic.com/20a58c9.jpg[/image]

Mensaje escrito por cgarcia1097 el 12/11/2016 05:34:37 am - Puntaje: 14 
Sully.2016.1080p.KORSUB.HDRip.x264.AAC2.0-STUTTERSHIT [image]http://i63.tinypic.com/2nr2fba.jpg[/image] Sully.2016.1080p.KORSUB.HDRip.x264.AAC2.0-STUTTERSHIT Video ID : 1 Format : AVC Format/Info : Advanced Video Codec Format profile : Baseline@L4 Format settings, CABAC : No Format settings, ReFrames : 1 frame Codec ID : V_MPEG4/ISO/AVC Duration : 1h 35mn Width : 1 920 pixels Height : 800 pixels Display aspect ratio : 2.40:1 Frame rate mode : Constant Frame rate : 29.125 fps Color space : YUV Chroma subsampling : 4:2:0 Bit depth : 8 bits Scan type : Progressive Title : Sully.2016.1080p.KORSUB.HDRip.x264.AAC2.0-STUTTERSHIT Language : English Default : Yes Forced : No Audio ID : 2 Format : AAC Format/Info : Advanced Audio Codec Format profile : LC Codec ID : A_AAC Duration : 1h 35mn Channel(s) : 2 channels Channel positions : Front: L R Sampling rate : 44.1 KHz Frame rate : 43.066 fps (1024 spf) Compression mode : Lossy Title : Sully.2016.1080p.KORSUB.HDRip.x264.AAC2.0-STUTTERSHIT Language : English Default : Yes Forced : No [image]http://i65.tinypic.com/2dwbx8p.jpg[/image] [image]http://i63.tinypic.com/m7rymq.jpg[/image] [image]http://i65.tinypic.com/j7dt0p.jpg[/image] [image]http://i66.tinypic.com/b7xg7o.jpg[/image] [image]http://i63.tinypic.com/ibxj5w.jpg[/image] [image]http://i64.tinypic.com/2im107k.jpg[/image] RELEASES Quality Codec Name S. L. Size HDRip Sully.2016.720p.KORSUB.HDRip.XviD.MP3-STUTTERSHIT 2.88 GB HDRip Sully.2016.KORSUB.HDRip.x264-STUTTERSHIT 809.42 MB HDRip Sully.2016.KORSUB.HDRip.XviD.MP3-STUTTERSHIT 1.34 GB HDRip Sully.2016.1080p.KORSUB.HDRip.x264.AAC2.0-STUTTERSHIT 3.84 GB IMDB: [link]http://imdb.com/title/tt3263904/[/link][anchor_text]tt3263904[/anchor_text] Ranking: 7.9 /10 de 34,782 users Plot: La historia de Chesley Sullenberger, un piloto estadounidense que se convirtió en un héroe después de aterrizar su avión dañado en el río Hudson con el fin de salvar a los pasajeros del vuelo y la tripulación. Genero: Biografia, Drama Trailer: [youtube]uU9V2UR2PF0[/youtube] Trailer Subtitulado: [youtube]vF-8lb-sQjY[/youtube]

Mensaje escrito por cgarcia1097 el 07/04/2017 03:03:43 am - Puntaje: 14 
The.Void.2016.1080p.WEB-DL.DD5.1.H264-FGT [image]https://dyncdn.me/posters2/1/1e0a0a6b680f1db9f99b5f445974872281ba2abf.jpg[/image] Video ID : 1 Format : AVC Format/Info : Advanced Video Codec Format profile : High@L4 Format settings, CABAC : Yes Format settings, ReFrames : 5 frames Codec ID : V_MPEG4/ISO/AVC Duration : 1h 30mn Bit rate : 4 475 Kbps Width : 1 904 pixels Height : 788 pixels Display aspect ratio : 2.40:1 Frame rate mode : Constant Frame rate : 23.976 (24000/1001) fps Color space : YUV Chroma subsampling : 4:2:0 Bit depth : 8 bits Scan type : Progressive Bits/(PixelFrame) : 0.124 Stream size : 2.82 GiB (90%) Title : The.Void.2016.1080p.WEB-DL.DD5.1.H264-FGT Language : English Default : Yes Forced : No Color range : Limited Color primaries : BT.709 Transfer characteristics : BT.709 Matrix coefficients : BT.709 Audio ID : 2 Format : AC-3 Format/Info : Audio Coding 3 Mode extension : CM (complete main) Format settings, Endianness : Big Codec ID : A_AC3 Duration : 1h 30mn Bit rate mode : Constant Bit rate : 384 Kbps Channel(s) : 6 channels Channel positions : Front: L C R, Side: L R, LFE Sampling rate : 48.0 KHz Frame rate : 31.250 fps (1536 spf) Compression mode : Lossy Stream size : 248 MiB (8%) Title : The.Void.2016.1080p.WEB-DL.DD5.1.H264-FGT Language : English Default : Yes Forced : No Text ID : 3 Format : UTF-8 Codec ID : S_TEXT/UTF8 Codec ID/Info : UTF-8 Plain Text Language : English Default : Yes Forced : No Menu 00:00:00.000 : en:Chapter 1 00:09:48.588 : en:Chapter 2 00:18:48.127 : en:Chapter 3 00:30:34.833 : en:Chapter 4 00:39:58.396 : en:Chapter 5 00:50:08.005 : en:Chapter 6 00:59:54.591 : en:Chapter 7 01:09:01.137 : en:Chapter 8 01:20:42.838 : en:Chapter 9 01:24:39.074 : en:Chapter 10 [image]http://imagecurl.com/images/16940843786044881144_thumb.png[/image] [image]http://imagecurl.com/images/43685945263305736797_thumb.png[/image] [image]http://imagecurl.com/images/48864385927696696154_thumb.png[/image] [image]http://imagecurl.com/images/94261563167170004470_thumb.png[/image] [image]http://imagecurl.com/images/16173175138754351097_thumb.png[/image] [image]http://imagecurl.com/images/04070629588669177890_thumb.png[/image] IMDB: 6.0 de 438 usuarios Plot: Poco después de entregar a un paciente a un hospital con escasez de personal, un oficial de policía experimenta extraños y violentos sucesos aparentemente vinculados a un grupo de misteriosas figuras encapuchadas. Genero: Horror Trailer: [youtube]QH30r8-Rcy4[/youtube]

Mensaje escrito por cgarcia1097 el 01/07/2016 07:36:08 am - Puntaje: 13 
Carnage.Park.(2016) [image]http://i66.tinypic.com/29z4zya.jpg[/image] Carnage.Park.2016.1080p.WEB-DL.DD5.1.H264-FGT RELEASE DATE: 2016-07-01 12:32:33 ORIGEN......: WEB DURACION.....: 120 min TAMAÑO........: 2.71 GB VIDEO.......: H.264 @ 4321 kbps RESOLUCION..: 1920x796 (2.40.1) TASA DE CUADROS...: 23.976 fps AUDIO.......: AC3 @ 384 Kbps (6 ch) LENGUAJE....: English SUBS....: English SRT (Muxed) [image]http://i65.tinypic.com/zitzxg.jpg[/image] [image]http://i66.tinypic.com/2lmmglt.jpg[/image] [image]http://i65.tinypic.com/e0pg9l.jpg[/image] [image]http://i66.tinypic.com/dzcg3k.jpg[/image] [image]http://i64.tinypic.com/23mri8k.jpg[/image] [image]http://i64.tinypic.com/2dkl4s3.jpg[/image] IMDB........: http://imdb.com/title/tt4335650/ Genero: Action , Crime , Horror , Thriller Ranking: 6.0 / 10 de 55 usuarios Plot: Después de estropear un atraco mal planeado a un banco en una ciudad desierta de California, dos aspirantes a ladrones huyen de la escena con un rehén y llevan a los representantes de la ley locales en una persecución peligrosa a alta velocidad. Trailer [youtube]46g3cKB1-70[/youtube]

Mensaje escrito por cgarcia1097 el 22/08/2016 04:10:53 am - Puntaje: 13 
Popstar.Never.Stop.Never.Stopping.(2016) WEB-DL [image]http://i66.tinypic.com/5osf0z.jpg[/image] Popstar.Never.Stop.Never.Stopping.(2016).1080p.WEB-DL.DD5.1.H264-FGT Video ID : 1 Format : AVC Format/Info : Advanced Video Codec Format profile : High@L4 Format settings, CABAC : Yes Format settings, ReFrames : 5 frames Codec ID : V_MPEG4/ISO/AVC Duration : 1h 26mn Bit rate : 4 468 Kbps Width : 1 916 pixels Height : 796 pixels Display aspect ratio : 2.40:1 Frame rate mode : Constant Frame rate : 23.976 fps Color space : YUV Chroma subsampling : 4:2:0 Bit depth : 8 bits Scan type : Progressive Bits/(PixelFrame) : 0.122 Stream size : 2.70 GiB (90%) Title : Popstar.Never.Stop.Never.Stopping.2016.1080p.WEB-DL.DD5.1.H264-FGT Language : English Default : Yes Forced : No Color range : Limited Color primaries : BT.709 Transfer characteristics : BT.709 Matrix coefficients : BT.709 Audio ID : 2 Format : AC-3 Format/Info : Audio Coding 3 Mode extension : CM (complete main) Format settings, Endianness : Big Codec ID : A_AC3 Duration : 1h 26mn Bit rate mode : Constant Bit rate : 384 Kbps Channel(s) : 6 channels Channel positions : Front: L C R, Side: L R, LFE Sampling rate : 48.0 KHz Frame rate : 31.250 fps (1536 spf) Compression mode : Lossy Stream size : 238 MiB (8%) Title : Popstar.Never.Stop.Never.Stopping.2016.1080p.WEB-DL.DD5.1.H264-FGT Language : English Default : Yes Forced : No Menu 00:00:00.000 : en:1 00:05:56.000 : en:2 00:09:28.000 : en:3 00:14:39.000 : en:4 00:19:35.000 : en:5 00:24:51.000 : en:6 00:28:29.000 : en:7 00:31:46.000 : en:8 00:36:14.000 : en:9 00:40:17.000 : en:10 00:43:05.000 : en:11 00:46:45.000 : en:12 00:51:08.000 : en:13 00:54:40.000 : en:14 00:59:19.000 : en:15 01:05:16.000 : en:16 01:08:44.000 : en:17 01:13:15.000 : en:18 01:16:54.000 : en:19 01:22:31.000 : en:20 Caps [image]http://i67.tinypic.com/nmgbwy.jpg[/image] [image]http://i64.tinypic.com/29dvm0l.jpg[/image] [image]http://i67.tinypic.com/f2sewh.jpg[/image] [image]http://i65.tinypic.com/281znyt.jpg[/image] [image]http://i67.tinypic.com/xfapp2.jpg[/image] [image]http://i66.tinypic.com/4kzq5l.jpg[/image] Plot: Cuando se hace evidente que su solo álbum es un fracaso, un ex miembro de la banda de chicos hace todo lo posible para mantener su estatus de celebridad. IMDB:[link]http://imdb.com/title/tt3960412/[/link][anchor_text]http://imdb.com/title/tt3960412/ [/anchor_text] Genero: Ranking: 6.9/10 de 11,409 usuarios Trailer: [youtube]VOOhMnlQN5M[/youtube]

Mensaje escrito por cgarcia1097 el 03/12/2016 12:28:52 am - Puntaje: 13 
Sully.2016.720p.BluRay.x264-SPARKS [image]http://i63.tinypic.com/2nr2fba.jpg[/image] Sully.2016.720p.BluRay.x264-SPARKS Video ID : 1 Format : AVC Format/Info : Advanced Video Codec Format profile : High@L4.1 Format settings, CABAC : Yes Format settings, ReFrames : 5 frames Codec ID : V_MPEG4/ISO/AVC Duration : 1h 35mn Bit rate : 5 887 Kbps Width : 1 280 pixels Height : 536 pixels Display aspect ratio : 2.40:1 Frame rate mode : Constant Frame rate : 23.976 fps Color space : YUV Chroma subsampling : 4:2:0 Bit depth : 8 bits Scan type : Progressive Bits/(PixelFrame) : 0.358 Stream size : 3.94 GiB (90%) Writing library : x264 core 148 r2705 3f5ed56 Encoding settings : cabac=1 / ref=5 / deblock=1:0:0 / analyse=0x3:0x133 / me=umh / subme=7 / psy=1 / psy_rd=1.00:0.00 / mixed_ref=1 / me_range=16 / chroma_me=1 / trellis=1 / 8x8dct=1 / cqm=0 / deadzone=21,11 / fast_pskip=0 / chroma_qp_offset=-2 / threads=17 / lookahead_threads=2 / sliced_threads=0 / nr=0 / decimate=1 / interlaced=0 / bluray_compat=0 / constrained_intra=0 / bframes=3 / b_pyramid=2 / b_adapt=1 / b_bias=0 / direct=1 / weightb=1 / open_gop=0 / weightp=2 / keyint=250 / keyint_min=23 / scenecut=40 / intra_refresh=0 / rc_lookahead=40 / rc=2pass / mbtree=1 / bitrate=5887 / ratetol=1.0 / qcomp=0.60 / qpmin=0 / qpmax=69 / qpstep=4 / cplxblur=20.0 / qblur=0.5 / ip_ratio=1.40 / aq=1:1.00 Language : English Default : Yes Forced : No Audio ID : 2 Format : AC-3 Format/Info : Audio Coding 3 Mode extension : CM (complete main) Format settings, Endianness : Big Codec ID : A_AC3 Duration : 1h 35mn Bit rate mode : Constant Bit rate : 640 Kbps Channel(s) : 6 channels Channel positions : Front: L C R, Side: L R, LFE Sampling rate : 48.0 KHz Frame rate : 31.250 fps (1536 spf) Compression mode : Lossy Stream size : 439 MiB (10%) Language : English Default : Yes Forced : No [image]http://i68.tinypic.com/281tyx5.jpg[/image] [image]http://i63.tinypic.com/2lmud10.jpg[/image] [image]http://i63.tinypic.com/2mo1oc9.jpg[/image] [image]http://i64.tinypic.com/2vk0z8z.jpg[/image] [image]http://i67.tinypic.com/znsgfl.jpg[/image] RELEASES Quality Codec Name S. L. Size BRRip 720 AC3 xvid Sully.2016.720p.BRRip.XviD.AC3-RARBG 11 12 2.67 GB BRRip - AC3 xvid Sully.2016.BRRip.XviD.AC3-RARBG 12 29 1.27 GB BRRip - MP3 xvid Sully.2016.BRRip.XviD.MP3-RARBG 13 24 1.10 GB BRRip - - x264 Sully.2016.BDRip.x264-SPARKS 33 31 521.93 MB IMDB: [link]http://imdb.com/title/tt3263904/[/link][anchor_text]tt3263904[/anchor_text] Ranking: 7.7 /10 de 42,961 users Plot: La historia de Chesley Sullenberger, un piloto estadounidense que se convirtió en un héroe después de aterrizar su avión dañado en el río Hudson con el fin de salvar a los pasajeros del vuelo y la tripulación. Genero: Biografia, Drama Trailer: [youtube]uU9V2UR2PF0[/youtube] Trailer Subtitulado: [youtube]vF-8lb-sQjY[/youtube]

Mensaje escrito por cgarcia1097 el 17/01/2017 03:53:02 am - Puntaje: 13 
The.Man.with.Thousand.Faces.2016.720p.BluRay.x264-BiPOLAR [image]http://i68.tinypic.com/fp89if.jpg[/image] IMDB: http://imdb.com/title/tt1713440/ 5.47Gb IMDB: 7.5 de 10 de 787 usuarios Genero: Biografia, Triller Plot: La historia de un hombre que engañó a un país entero. Un cuento de tramposos e impostores, inspirándose en hechos reales y en uno de los personajes más intrigantes de las últimas décadas: el espía Francisco Paesa. Trailer: [youtube]dU-yPH9lhII[/youtube] [image]http://i65.tinypic.com/axg1ll.jpg[/image] A.Street.Cat.Named.Bob.2016.1080p.WEB-DL.DD5.1.H264-FGT [image]http://i65.tinypic.com/29bnjiu.jpg[/image] IMDB: http://imdb.com/title/tt3606888/ 3.56 Gb IMDB: 7.3 de 10 de 1454 usuarios Genero: Biografia, Comedia, Drama, Familia Plot: Basado en el libro internacional más vendido. La verdadera y buena historia de cómo James Bowen Un busker y drogadicto en recuperación Quien su vida transformó cuando conoció a un gato jengibre callejero. Trailer: [youtube]A3YEs5vXmLU[/youtube] [image]http://i65.tinypic.com/axg1ll.jpg[/image] The.Free.World.2016.1080p.WEB-DL.DD5.1.H264-FGT [image]http://i64.tinypic.com/21kb58o.jpg[/image] IMDB: http://imdb.com/title/tt3517044/ 3.95 Gb IMDB: 6.1 de 10 de 223 usuarios Genero: Drama Plot: Después de su liberación de un tramo brutal en la cárcel por crímenes que no cometió Mo está luchando para adaptarse a la vida en el exterior. Cuando su mundo choca con Doris Una mujer misteriosa con un pasado violento Él decide arriesgar su nueva libertad para mantenerla en su vida. Trailer: [youtube]Brg5me-5_uA[/youtube] [image]http://i65.tinypic.com/axg1ll.jpg[/image] Jack.Reacher.Never.Go.Back.2016.1080p.WEB-DL.DD5.1.H264-FGT [image]http://i63.tinypic.com/2iks1fk.jpg[/image] IMDB: http://imdb.com/title/tt3393786/ 4.11 Gb IMDB: 6.2 de 10 de 32731 usuarios Genero: Accion, Aventura, Crimen, Misterio, Triller Plot: Después de cumplir con la tarea de desmantelar una organización de tráfico de personas El ex militar y loco Jack Reacher va a Washington para invitar a su La comandante Susan Turner para cenar con él. Sin embargo Él se encuentra con su suplente Major Sam Morgan que explica que el Mayor Turner es arrestado acusado de espionaje. Jack busca a su veterano abogado, el coronel Bob Moorcroft, que explica que el mayor Turner es también acusado por los asesinatos de dos soldados en Afganistán. Más Él también dice que Jack está siendo demandado Acusado por una mujer de ser el padre de su hija de quince años Samantha. Cuando Moorcroft es asesinado Jack es Acusado de ser el asesino y enviado a una prisión. Él ve que Turner y él han sido enmarcados y también que Turner será asesinado por dos asesinos. Sin embargo, él La rescata y huyen Pronto se dan cuenta de que hay una conspiración que involucra a militares del ejército y un contratista que es un poderoso comerciante de brazos. Jack También aprende que ... Trailer: [youtube]5VvRjA-2E8o[/youtube] [image]http://i65.tinypic.com/axg1ll.jpg[/image]

Mensaje escrito por cgarcia1097 el 04/04/2017 12:48:10 am - Puntaje: 13 
En Alien: Covenant el xenomorfo no llegará solo: un vídeo nos presenta a una nueva criatura [image]http://i65.tinypic.com/2ujibfb.jpg[/image] Si no desean conocer detalles acerca de la próximo película de Alien, lo mejor es que dejen de leer ahora mismo, ya que en las siguientes líneas encontrarán spoilers relacionados con lo que veremos en Alien: Covenant. Ok, si están leyendo esto es porque no pueden más con la curiosidad y desean conocer algo de lo que nos tiene preparado Ridley Scott para su siguiente película de la saga Alien. Hace unas horas se publicaron cuatro nuevos spots, donde nos están presentando una nueva criatura que acompañara al ya famoso xenomorfo. Neomorfo: corre, reza, escóndete Todo parecía una nueva etapa en la campaña de marketing de la 20th Century Fox, cuatro nuevos spots de apenas unos segundos creados para televisión, por ello no hicieron mucho ruido cuando fueron lanzados durante el domingo pasado. Al paso de las horas, los fans empezaron a analizar a fondo estos nuevos spots y detectaron que no todos eran de escenas recicladas de los trailers, sino que había algo nuevo. Es así como se descubrió que en uno de los spots había una nueva criatura, la cual aparece durante un segundo, lo que fue suficiente para descubrir que estamos ante la primera aparición del neomorfo. Mientras que al xenomorfo lo conocemos en sus diferentes etapas, que van de huevo a facehugger y a chestbuster, el neomorfo al parecer surge de la espalda de la víctima. [image]http://i66.tinypic.com/2jg8hu0.jpg[/image] El aspecto de este neomorfo es pálido tirando a translúcido, con una cabeza puntiaguda, dientes que parecen colmillos y sin una segunda boca como el caso del xenomorfo. Como era de esperarse, no hay información de este monstruo que al parecer hará su debut en Alien: Covenant el próximo 19 de mayo cuando se estrene la película. A continuación les dejamos con el spot Hide que cuenta con la aparición del neomorfo [youtube]nvrilPDKVLI[/youtube] Ahora los dejamos con los otros tres spots, que mantiene la estética de la película y usan muchas de las escenas que ya hemos visto. Aquí hay que destacar que el último vídeo, titulado Alien Day es una especie de preparación para el próximo Día de Alien que se llevará a cabo el próximo 26 de abril. [youtube]lNgzx_IbMqw[/youtube] [youtube]dlOU5InhDSU[/youtube] [youtube]1XQHZSGJuJQ[/youtube] FUENTE: XATAKA

Mensaje escrito por cgarcia1097 el 07/04/2017 02:55:37 am - Puntaje: 13 
Aftermath.2017.1080p.WEB-DL.DD5.1.H264-FGT [image]https://dyncdn.me/mimages/321757/poster_opt.jpg[/image] Video ID : 1 Format : AVC Format/Info : Advanced Video Codec Format profile : High@L4 Format settings, CABAC : Yes Format settings, ReFrames : 5 frames Codec ID : V_MPEG4/ISO/AVC Duration : 1h 33mn Bit rate : 4 540 Kbps Width : 1 912 pixels Height : 792 pixels Display aspect ratio : 2.40:1 Frame rate mode : Constant Frame rate : 23.976 (24000/1001) fps Color space : YUV Chroma subsampling : 4:2:0 Bit depth : 8 bits Scan type : Progressive Bits/(PixelFrame) : 0.125 Stream size : 2.98 GiB (90%) Title : Aftermath.2017.1080p.WEB-DL.DD5.1.H264-FGT Language : English Default : Yes Forced : No Color range : Limited Color primaries : BT.709 Transfer characteristics : BT.709 Matrix coefficients : BT.709 Audio ID : 2 Format : AC-3 Format/Info : Audio Coding 3 Mode extension : CM (complete main) Format settings, Endianness : Big Codec ID : A_AC3 Duration : 1h 33mn Bit rate mode : Constant Bit rate : 384 Kbps Channel(s) : 6 channels Channel positions : Front: L C R, Side: L R, LFE Sampling rate : 48.0 KHz Frame rate : 31.250 fps (1536 spf) Compression mode : Lossy Stream size : 258 MiB (8%) Title : Aftermath.2017.1080p.WEB-DL.DD5.1.H264-FGT Language : English Default : Yes Forced : No Text ID : 3 Format : UTF-8 Codec ID : S_TEXT/UTF8 Codec ID/Info : UTF-8 Plain Text Language : English Default : Yes Forced : No Menu 00:00:00.000 : en:1 00:01:14.000 : en:2 00:10:56.000 : en:3 00:22:51.000 : en:4 00:33:46.000 : en:5 00:42:42.000 : en:6 00:54:19.000 : en:7 01:03:37.000 : en:8 01:13:49.000 : en:9 01:27:54.000 : en:10 [image]http://imagecurl.com/images/93274646659008064879_thumb.png[/image] [image]http://imagecurl.com/images/27322049976286204989_thumb.png[/image] [image]http://imagecurl.com/images/35959104740380814299_thumb.png[/image] [image]http://imagecurl.com/images/87147451928608347284_thumb.png[/image] [image]http://imagecurl.com/images/59734809009760847877_thumb.png[/image] [image]http://imagecurl.com/images/26958872598630366336_thumb.png[/image] IMDB: 6.5 de 74 usuarios Plot: Las vidas de dos forasteros se unen inextricablemente después de un devastador accidente aéreo. Genero: Triller, Drama Trailer: [youtube]BLF0nNTX1gQ[/youtube]

Mensaje escrito por cgarcia1097 el 01/07/2016 07:23:40 am - Puntaje: 12 
Marauders (2016) [image]http://i67.tinypic.com/2zyva76.jpg[/image] Marauders.2016.1080p.WEB-DL.DD5.1.H264-FGT RELEASE DATE: 2016-07-01 12:16:29 ORIGEN......: WEB DURACION.....: 1h 47min TAMAÑO........: 3.55 GB VIDEO.......: H.264 @ 4267 kbps RESOLUCION..: 1908x788 (2.40.1) TASA DE CUADROS...: 23.976 fps AUDIO.......: AC3 @ 384 Kbps (6 ch) LENGUAJE....: English SUBS....: English SRT (muxed) [image]http://i68.tinypic.com/2mo70ua.jpg[/image] [image]http://i66.tinypic.com/2a4r0ck.jpg[/image] [image]http://i67.tinypic.com/b6pmyr.jpg[/image] [image]http://i67.tinypic.com/2mcu79k.jpg[/image] [image]http://i64.tinypic.com/1214qe1.jpg[/image] [image]http://i68.tinypic.com/2w2r89i.jpg[/image] IMDB........: http://imdb.com/title/tt3963816/ Genero: Action Ranking: 8.0 / 10 de 13 usuarios Plot: Cuando un banco es asaltado por un golpe brutal, toda la evidencia apunta al propietario y sus clientes de alto nivel. Pero a medida que un grupo de agentes del FBI profundizan más en el caso - y los atracos mortales continúan - se hace evidente que una conspiración más grande está en juego. Trailer [youtube]36MRRKBAcpM[/youtube]