Foros en los que participó cgarcia1097 :: subdivx
  Login

  





Últimos mensajes dejados por cgarcia1097

Mensaje escrito por cgarcia1097 el 22/05/2017 09:52:25 pm - Puntaje: 1 
Compro!!!

Mensaje escrito por cgarcia1097 el 14/05/2017 05:33:47 pm - Puntaje: 2 
Comprooooooooooo!!! [link]http://www.imdb.com/title/tt5614612/[/link][anchor_text]Ficha en IMDB[/anchor_text]

Mensaje escrito por cgarcia1097 el 27/04/2017 02:50:40 pm - Puntaje: 3 
oraldo escribió: [image]http://celebmafia.com/wp-content/uploads/2015/10/anne-hathaway-esquire-magazine-mexico-octobe
r-2015-issue_1.jpg[/image]Subtitulo asegurado....
Exquisita Maestro Oraldo!!!

Mensaje escrito por cgarcia1097 el 24/04/2017 05:24:27 pm - Puntaje: 6 
[image]http://i65.tinypic.com/2hoh2xx.jpg[/image] Anoche entre las 8 pm y las 4 am tiempo de México, (pues desde acá entro a la pagina de SDX) no pude acceder a SDX por espacio aproximado de 7 a 9 horas, al principio solo me arrojaba un mensaje de error 500 sin acceso y luego pusieron esa imagen, pero durante algún tiempo me entro terror pues pensé que a lo mejor habían cerrado mi amado sitio y digo pues aquí llevo varios años a gusto y pues ustedes y sus aportes hacen mas soportable mi vida de soledad... Entonces me quede pensando en que pasaría si SDX desapareciera y de donde podría yo obtener los subs, así que me puse a pensar en como podría hacerle para descargar todos los subs del sitio y de esa manera tener un backup por si acaso... alguna sugerencia o idea? Saludos y disculpen de antemano lo burdo de mi redacción y las muchas faltas de ortografía y puntuación.

Mensaje escrito por cgarcia1097 el 20/04/2017 01:30:11 am - Puntaje: 21 
Gracias de todo Buen deseo, de corazón.

Mensaje escrito por cgarcia1097 el 13/04/2017 05:35:01 pm - Puntaje: 2 
Merci!!!

Mensaje escrito por cgarcia1097 el 07/04/2017 04:08:37 am - Puntaje: 8 
Bethany.2017.1080p.WEB-DL.DD5.1.H264-FGT [image]https://dyncdn.me/posters2/e/e2fe731b813f32fa71626b31de8970c922deb04b.jpg[/image] Video ID : 1 Format : AVC Format/Info : Advanced Video Codec Format profile : High@L4 Format settings, CABAC : Yes Format settings, ReFrames : 4 frames Codec ID : V_MPEG4/ISO/AVC Duration : 1h 30mn Bit rate : 4 686 Kbps Width : 1 920 pixels Height : 1 004 pixels Display aspect ratio : 1.912 Frame rate mode : Constant Frame rate : 23.976 (24000/1001) fps Color space : YUV Chroma subsampling : 4:2:0 Bit depth : 8 bits Scan type : Progressive Bits/(PixelFrame) : 0.101 Stream size : 2.95 GiB (91%) Title : Bethany.2017.1080p.WEB-DL.DD5.1.H264-FGT Language : English Default : Yes Forced : No Color range : Limited Color primaries : BT.709 Transfer characteristics : BT.709 Matrix coefficients : BT.709 Audio ID : 2 Format : AC-3 Format/Info : Audio Coding 3 Mode extension : CM (complete main) Format settings, Endianness : Big Codec ID : A_AC3 Duration : 1h 30mn Bit rate mode : Constant Bit rate : 384 Kbps Channel(s) : 6 channels Channel positions : Front: L C R, Side: L R, LFE Sampling rate : 48.0 KHz Frame rate : 31.250 fps (1536 spf) Compression mode : Lossy Stream size : 247 MiB (7%) Title : Bethany.2017.1080p.WEB-DL.DD5.1.H264-FGT Language : English Default : Yes Forced : No Text ID : 3 Format : UTF-8 Codec ID : S_TEXT/UTF8 Codec ID/Info : UTF-8 Plain Text Language : English Default : Yes Forced : No Menu 00:00:00.000 : en:1 00:13:11.000 : en:2 00:24:27.000 : en:3 00:34:24.000 : en:4 00:45:01.000 : en:5 00:56:25.000 : en:6 01:08:42.000 : en:7 01:26:19.000 : en:8 [image]http://imagecurl.com/images/75997721492837676554_thumb.png[/image] [image]http://imagecurl.com/images/14515495715673036193_thumb.png[/image] [image]http://imagecurl.com/images/40263420079157414179_thumb.png[/image] [image]http://imagecurl.com/images/41553963352644449270_thumb.png[/image] [image]http://imagecurl.com/images/84438299902685508990_thumb.png[/image] [image]http://imagecurl.com/images/69213344578246861847_thumb.png[/image] IMDB: [link]http://imdb.com/title/tt4516352/[/link][anchor_text]Link IMDB[/anchor_text] Plot: Claire y su esposo se encuentran moviéndose de nuevo en la casa de su niñez solamente para tener los recuerdos abusivos y traumáticos de su madre atormentandola. Mientras su marido comienza a conseguir más trabajo, Claire se encuentra mezclada en una niebla del pasado y presente con una figura misteriosa que atormenta sus memorias. ¿Qué es esta pequeña figura que está tratando de llegar a ella, y qué es lo que quiere? Genero: Horror Ranking: 8.7/10 from 6 users Updated : 2017-04-07 Trailer: [youtube]XMrgc81X5-k[/youtube]

Mensaje escrito por cgarcia1097 el 07/04/2017 03:43:41 am - Puntaje: 8 
Detour.2016.1080p / 720p.BluRay.x264-SiNNERS [image]https://dyncdn.me/posters2/5/5daf7eb7e53edbb3420861cca6e4f9b93e13284d.jpg?c=2[/image] Video ID : 1 Format : AVC Format/Info : Advanced Video Codec Format profile : High@L4.1 Format settings, CABAC : Yes Format settings, ReFrames : 9 frames Codec ID : V_MPEG4/ISO/AVC Duration : 1h 37mn Bit rate : 4 909 Kbps Width : 1 280 pixels Height : 536 pixels Display aspect ratio : 2.40:1 Frame rate mode : Constant Frame rate : 24.000 fps Color space : YUV Chroma subsampling : 4:2:0 Bit depth : 8 bits Scan type : Progressive Bits/(PixelFrame) : 0.298 Stream size : 3.25 GiB (75%) Writing library : x264 core 148 r2762 90a61ec Encoding settings : cabac=1 / ref=9 / deblock=1:-3:-3 / analyse=0x3:0x113 / me=umh / subme=8 / psy=1 / psy_rd=1.00:0.00 / mixed_ref=1 / me_range=16 / chroma_me=1 / trellis=2 / 8x8dct=1 / cqm=0 / deadzone=21,11 / fast_pskip=0 / chroma_qp_offset=-2 / threads=12 / lookahead_threads=2 / sliced_threads=0 / nr=0 / decimate=1 / interlaced=0 / bluray_compat=0 / constrained_intra=0 / bframes=3 / b_pyramid=2 / b_adapt=1 / b_bias=0 / direct=1 / weightb=1 / open_gop=0 / weightp=2 / keyint=250 / keyint_min=24 / scenecut=40 / intra_refresh=0 / rc_lookahead=40 / rc=2pass / mbtree=1 / bitrate=4909 / ratetol=1.0 / qcomp=0.60 / qpmin=0 / qpmax=69 / qpstep=4 / cplxblur=20.0 / qblur=0.5 / ip_ratio=1.40 / aq=1:1.00 Language : English Default : Yes Forced : No Audio ID : 2 Format : DTS Format/Info : Digital Theater Systems Mode : 16 Format settings, Endianness : Big Codec ID : A_DTS Duration : 1h 37mn Bit rate mode : Constant Bit rate : 1 509 Kbps Channel(s) : 6 channels Channel positions : Front: L C R, Side: L R, LFE Sampling rate : 48.0 KHz Frame rate : 93.750 fps (512 spf) Bit depth : 24 bits Compression mode : Lossy Stream size : 1.03 GiB (24%) Language : English Default : Yes Forced : No Menu 00:00:00.000 : en:00:00:00.000 00:08:21.333 : en:00:08:21.333 00:17:34.333 : en:00:17:34.333 00:25:19.708 : en:00:25:19.708 00:36:20.792 : en:00:36:20.792 00:45:40.583 : en:00:45:40.583 00:51:45.458 : en:00:51:45.458 00:59:31.125 : en:00:59:31.125 01:08:09.208 : en:01:08:09.208 01:14:28.000 : en:01:14:28.000 01:30:33.000 : en:01:30:33.000 01:33:07.375 : en:01:33:07.375 [image]http://imagecurl.com/images/04963245790520659922_thumb.png[/image] [image]http://imagecurl.com/images/90634428844264628280_thumb.png[/image] [image]http://imagecurl.com/images/30101770165998184424_thumb.png[/image] [image]http://imagecurl.com/images/65197939336881721817_thumb.png[/image] [image]http://imagecurl.com/images/44926238997102722949_thumb.png[/image] [image]http://imagecurl.com/images/94612840214137783189_thumb.png[/image] IMDB:[link]http://imdb.com/title/tt4372390/[/link][anchor_text]Enlace IMDB[/anchor_text] Plot:Un estudiante de derecho joven entra ciegamente en un pacto con un hombre que se ofrece a matar a su padrastro, quien se siente es responsable del accidente que envió a su madre en coma. Genero: Triller Ranking: 6.3 de 10 de 1651 usuarios Trailer: [youtube]ZJmOCTbDv2w[/youtube]

Mensaje escrito por cgarcia1097 el 07/04/2017 03:08:05 am - Puntaje: 5 
The.Founder.2016.720p.BluRay.x264.DTS-HDC [image]http://i64.tinypic.com/654lyh.jpg[/image] Video ID : 1 Format : AVC Format/Info : Advanced Video Codec Format profile : High@L4.1 Format settings, CABAC : Yes Format settings, ReFrames : 12 frames Codec ID : V_MPEG4/ISO/AVC Duration : 1h 55mn Bit rate : 4 600 Kbps Width : 1 280 pixels Height : 534 pixels Display aspect ratio : 2.40:1 Frame rate mode : Constant Frame rate : 23.976 (24000/1001) fps Color space : YUV Chroma subsampling : 4:2:0 Bit depth : 8 bits Scan type : Progressive Bits/(PixelFrame) : 0.281 Stream size : 3.61 GiB (73%) Title : The.Founder.2016.720p.BluRay.x264.DTS-HDC Writing library : x264 core 148 r2665kMod a01e339 Encoding settings : cabac=1 / ref=12 / deblock=1:-3:-3 / analyse=0x3:0x133 / me=umh / subme=11 / psy=1 / fade_compensate=0.00 / psy_rd=1.05:0.00 / mixed_ref=1 / me_range=32 / chroma_me=1 / trellis=2 / 8x8dct=1 / cqm=0 / deadzone=21,11 / fast_pskip=0 / chroma_qp_offset=-2 / threads=17 / lookahead_threads=2 / sliced_threads=0 / nr=0 / decimate=0 / interlaced=0 / bluray_compat=0 / constrained_intra=0 / fgo=0 / bframes=8 / b_pyramid=2 / b_adapt=2 / b_bias=0 / direct=3 / weightb=1 / open_gop=0 / weightp=2 / keyint=240 / keyint_min=24 / scenecut=40 / intra_refresh=0 / rc=2pass / mbtree=0 / bitrate=4600 / ratetol=1.0 / qcomp=0.70 / qpmin=0 / qpmax=69 / qpstep=4 / cplxblur=20.0 / qblur=0.5 / ip_ratio=1.20 / pb_ratio=1.20 / aq=3:0.85 Language : English Default : Yes Forced : No Audio ID : 2 Format : DTS Format/Info : Digital Theater Systems Mode : 16 Format settings, Endianness : Big Codec ID : A_DTS Duration : 1h 55mn Bit rate mode : Constant Bit rate : 1 509 Kbps Channel(s) : 6 channels Channel positions : Front: L C R, Side: L R, LFE Sampling rate : 48.0 KHz Frame rate : 93.750 fps (512 spf) Bit depth : 24 bits Compression mode : Lossy Stream size : 1.22 GiB (25%) Title : The.Founder.2016.720p.BluRay.x264.DTS-HDC Language : English Default : Yes Forced : No Text ID : 3 Format : UTF-8 Codec ID : S_TEXT/UTF8 Codec ID/Info : UTF-8 Plain Text Language : English Default : Yes Forced : No Menu 00:00:00.000 : en:00:00:00.000 00:04:21.094 : en:00:04:21.094 00:10:09.984 : en:00:10:09.984 00:16:15.391 : en:00:16:15.391 00:25:07.172 : en:00:25:07.172 00:31:55.247 : en:00:31:55.247 00:38:49.661 : en:00:38:49.661 00:45:43.491 : en:00:45:43.491 00:52:27.394 : en:00:52:27.394 01:00:31.670 : en:01:00:31.670 01:07:38.263 : en:01:07:38.263 01:12:04.904 : en:01:12:04.904 01:18:36.045 : en:01:18:36.045 01:24:36.947 : en:01:24:36.947 01:31:41.121 : en:01:31:41.121 01:37:26.674 : en:01:37:26.674 01:43:35.167 : en:01:43:35.167 01:47:11.675 : en:01:47:11.675 [image]http://imagecurl.com/images/05504877329588947420_thumb.png[/image] [image]http://imagecurl.com/images/48513064342099374547_thumb.png[/image] [image]http://imagecurl.com/images/79455288204335579166_thumb.png[/image] [image]http://imagecurl.com/images/26038305329033809199_thumb.png[/image] [image]http://imagecurl.com/images/68684122265353678665_thumb.png[/image] [image]http://imagecurl.com/images/29589301942984575777_thumb.png[/image] IMDB:7.2 de 18,008 usuarios Plot: La historia de Ray Kroc, un vendedor que convirtió el restaurante innovador de comida rápida Mc Donalds en uno de los negocios de restaurantes más grandes del mundo con una combinación de ambición, persistencia y crueldad. Genero: Biografia, Drama, Historia Trailer: [youtube]j8oUtULMdxY[/youtube]

Mensaje escrito por cgarcia1097 el 07/04/2017 03:03:43 am - Puntaje: 14 
The.Void.2016.1080p.WEB-DL.DD5.1.H264-FGT [image]https://dyncdn.me/posters2/1/1e0a0a6b680f1db9f99b5f445974872281ba2abf.jpg[/image] Video ID : 1 Format : AVC Format/Info : Advanced Video Codec Format profile : High@L4 Format settings, CABAC : Yes Format settings, ReFrames : 5 frames Codec ID : V_MPEG4/ISO/AVC Duration : 1h 30mn Bit rate : 4 475 Kbps Width : 1 904 pixels Height : 788 pixels Display aspect ratio : 2.40:1 Frame rate mode : Constant Frame rate : 23.976 (24000/1001) fps Color space : YUV Chroma subsampling : 4:2:0 Bit depth : 8 bits Scan type : Progressive Bits/(PixelFrame) : 0.124 Stream size : 2.82 GiB (90%) Title : The.Void.2016.1080p.WEB-DL.DD5.1.H264-FGT Language : English Default : Yes Forced : No Color range : Limited Color primaries : BT.709 Transfer characteristics : BT.709 Matrix coefficients : BT.709 Audio ID : 2 Format : AC-3 Format/Info : Audio Coding 3 Mode extension : CM (complete main) Format settings, Endianness : Big Codec ID : A_AC3 Duration : 1h 30mn Bit rate mode : Constant Bit rate : 384 Kbps Channel(s) : 6 channels Channel positions : Front: L C R, Side: L R, LFE Sampling rate : 48.0 KHz Frame rate : 31.250 fps (1536 spf) Compression mode : Lossy Stream size : 248 MiB (8%) Title : The.Void.2016.1080p.WEB-DL.DD5.1.H264-FGT Language : English Default : Yes Forced : No Text ID : 3 Format : UTF-8 Codec ID : S_TEXT/UTF8 Codec ID/Info : UTF-8 Plain Text Language : English Default : Yes Forced : No Menu 00:00:00.000 : en:Chapter 1 00:09:48.588 : en:Chapter 2 00:18:48.127 : en:Chapter 3 00:30:34.833 : en:Chapter 4 00:39:58.396 : en:Chapter 5 00:50:08.005 : en:Chapter 6 00:59:54.591 : en:Chapter 7 01:09:01.137 : en:Chapter 8 01:20:42.838 : en:Chapter 9 01:24:39.074 : en:Chapter 10 [image]http://imagecurl.com/images/16940843786044881144_thumb.png[/image] [image]http://imagecurl.com/images/43685945263305736797_thumb.png[/image] [image]http://imagecurl.com/images/48864385927696696154_thumb.png[/image] [image]http://imagecurl.com/images/94261563167170004470_thumb.png[/image] [image]http://imagecurl.com/images/16173175138754351097_thumb.png[/image] [image]http://imagecurl.com/images/04070629588669177890_thumb.png[/image] IMDB: 6.0 de 438 usuarios Plot: Poco después de entregar a un paciente a un hospital con escasez de personal, un oficial de policía experimenta extraños y violentos sucesos aparentemente vinculados a un grupo de misteriosas figuras encapuchadas. Genero: Horror Trailer: [youtube]QH30r8-Rcy4[/youtube]

Mensaje escrito por cgarcia1097 el 07/04/2017 02:55:37 am - Puntaje: 13 
Aftermath.2017.1080p.WEB-DL.DD5.1.H264-FGT [image]https://dyncdn.me/mimages/321757/poster_opt.jpg[/image] Video ID : 1 Format : AVC Format/Info : Advanced Video Codec Format profile : High@L4 Format settings, CABAC : Yes Format settings, ReFrames : 5 frames Codec ID : V_MPEG4/ISO/AVC Duration : 1h 33mn Bit rate : 4 540 Kbps Width : 1 912 pixels Height : 792 pixels Display aspect ratio : 2.40:1 Frame rate mode : Constant Frame rate : 23.976 (24000/1001) fps Color space : YUV Chroma subsampling : 4:2:0 Bit depth : 8 bits Scan type : Progressive Bits/(PixelFrame) : 0.125 Stream size : 2.98 GiB (90%) Title : Aftermath.2017.1080p.WEB-DL.DD5.1.H264-FGT Language : English Default : Yes Forced : No Color range : Limited Color primaries : BT.709 Transfer characteristics : BT.709 Matrix coefficients : BT.709 Audio ID : 2 Format : AC-3 Format/Info : Audio Coding 3 Mode extension : CM (complete main) Format settings, Endianness : Big Codec ID : A_AC3 Duration : 1h 33mn Bit rate mode : Constant Bit rate : 384 Kbps Channel(s) : 6 channels Channel positions : Front: L C R, Side: L R, LFE Sampling rate : 48.0 KHz Frame rate : 31.250 fps (1536 spf) Compression mode : Lossy Stream size : 258 MiB (8%) Title : Aftermath.2017.1080p.WEB-DL.DD5.1.H264-FGT Language : English Default : Yes Forced : No Text ID : 3 Format : UTF-8 Codec ID : S_TEXT/UTF8 Codec ID/Info : UTF-8 Plain Text Language : English Default : Yes Forced : No Menu 00:00:00.000 : en:1 00:01:14.000 : en:2 00:10:56.000 : en:3 00:22:51.000 : en:4 00:33:46.000 : en:5 00:42:42.000 : en:6 00:54:19.000 : en:7 01:03:37.000 : en:8 01:13:49.000 : en:9 01:27:54.000 : en:10 [image]http://imagecurl.com/images/93274646659008064879_thumb.png[/image] [image]http://imagecurl.com/images/27322049976286204989_thumb.png[/image] [image]http://imagecurl.com/images/35959104740380814299_thumb.png[/image] [image]http://imagecurl.com/images/87147451928608347284_thumb.png[/image] [image]http://imagecurl.com/images/59734809009760847877_thumb.png[/image] [image]http://imagecurl.com/images/26958872598630366336_thumb.png[/image] IMDB: 6.5 de 74 usuarios Plot: Las vidas de dos forasteros se unen inextricablemente después de un devastador accidente aéreo. Genero: Triller, Drama Trailer: [youtube]BLF0nNTX1gQ[/youtube]

Mensaje escrito por cgarcia1097 el 05/04/2017 12:12:44 am - Puntaje: 11 
Split.2016.1080p/720p.BluRay.x264-SPARKS [image]http://i68.tinypic.com/2m7vgj6.jpg[/image] Video ID : 1 Format : AVC Format/Info : Advanced Video Codec Format profile : High@L4.1 Format settings, CABAC : Yes Format settings, ReFrames : 5 frames Codec ID : V_MPEG4/ISO/AVC Duration : 1h 57mn Bit rate : 5 169 Kbps Width : 1 280 pixels Height : 536 pixels Display aspect ratio : 2.40:1 Frame rate mode : Constant Frame rate : 23.976 fps Color space : YUV Chroma subsampling : 4:2:0 Bit depth : 8 bits Scan type : Progressive Bits/(PixelFrame) : 0.314 Stream size : 4.23 GiB (77%) Writing library : x264 core 148 r2744 b97ae06 Encoding settings : cabac=1 / ref=5 / deblock=1:0:0 / analyse=0x3:0x133 / me=umh / subme=7 / psy=1 / psy_rd=1.00:0.00 / mixed_ref=1 / me_range=16 / chroma_me=1 / trellis=1 / 8x8dct=1 / cqm=0 / deadzone=21,11 / fast_pskip=0 / chroma_qp_offset=-2 / threads=17 / lookahead_threads=2 / sliced_threads=0 / nr=0 / decimate=1 / interlaced=0 / bluray_compat=0 / constrained_intra=0 / bframes=3 / b_pyramid=2 / b_adapt=1 / b_bias=0 / direct=1 / weightb=1 / open_gop=0 / weightp=2 / keyint=250 / keyint_min=23 / scenecut=40 / intra_refresh=0 / rc_lookahead=40 / rc=2pass / mbtree=1 / bitrate=5169 / ratetol=1.0 / qcomp=0.60 / qpmin=0 / qpmax=69 / qpstep=4 / cplxblur=20.0 / qblur=0.5 / ip_ratio=1.40 / aq=1:1.00 Language : English Default : Yes Forced : No Audio ID : 2 Format : DTS Format/Info : Digital Theater Systems Mode : 16 Format settings, Endianness : Big Codec ID : A_DTS Duration : 1h 57mn Bit rate mode : Constant Bit rate : 1 509 Kbps Channel(s) : 6 channels Channel positions : Front: L C R, Side: L R, LFE Sampling rate : 48.0 KHz Frame rate : 93.750 fps (512 spf) Bit depth : 24 bits Compression mode : Lossy Stream size : 1.23 GiB (23%) Language : English Default : Yes Forced : No Menu 00:00:00.000 : en:00:00:00.000 00:06:08.451 : en:00:06:08.451 00:14:19.025 : en:00:14:19.025 00:20:49.373 : en:00:20:49.373 00:24:14.536 : en:00:24:14.536 00:28:37.049 : en:00:28:37.049 00:35:47.979 : en:00:35:47.979 00:42:35.386 : en:00:42:35.386 00:49:06.068 : en:00:49:06.068 00:54:09.413 : en:00:54:09.413 01:00:24.496 : en:01:00:24.496 01:06:22.562 : en:01:06:22.562 01:12:31.222 : en:01:12:31.222 01:19:35.771 : en:01:19:35.771 01:25:25.829 : en:01:25:25.829 01:29:16.560 : en:01:29:16.560 01:34:08.226 : en:01:34:08.226 01:40:45.998 : en:01:40:45.998 01:47:40.287 : en:01:47:40.287 01:52:26.740 : en:01:52:26.740 [image]http://imagecurl.com/images/19821108815640052500_thumb.png[/image] [image]http://imagecurl.com/images/29937024759830461200_thumb.png[/image] [image]http://imagecurl.com/images/69325942533078034094_thumb.png[/image] [image]http://imagecurl.com/images/75563208696973605615_thumb.png[/image] [image]http://imagecurl.com/images/96386797262854940250_thumb.png[/image] [image]http://imagecurl.com/images/07028891116657898485_thumb.png[/image] IMDB: 7.4 / 10 de 92,334 usuarios Plot: Tres muchachas son secuestradas por un hombre con un diagnóstico de 23 personalidades distintas, que deben tratar de escapar antes de la aparente aparición de un nuevo y espantoso 24 º. Genero: Horror, Triller Trailer: [youtube]Of1Nyvd7kOo[/youtube] [link]http://www.subdivx.com/X6XNDk3ODU4X-split-2016.html[/link][anchor_text]Subs del Amigo Oraldo, ORIGINALES Completos y Forzados para BluRay y Audios Latinos[/anchor_text]

Mensaje escrito por cgarcia1097 el 04/04/2017 08:45:55 pm - Puntaje: 2 
[link]magnet:?xt=urn:btih:D92B7A8A44929636487975B049F16B0DA61AA48F&dn=Hacker.2015.720p.WEB-DL.DD5
.1.H264-FGT&tr=udp%3a%2f%2ftracker.trackerfix.com%3a83%2fannounce&tr=udp%3a%2f%2f9.rarbg.me%3a2730%2
fannounce&tr=udp%3a%2f%2f9.rarbg.to%3a2800%2fannounce[/link][anchor_text]Hacker.2015.720p.WEB-DL.DD5
.1.H264-FGT[/anchor_text]
[link]http://www.imdb.com/title/tt3173594/[/link][anchor_text]Ficha en IMDB[/anchor_text] SALIO: 27 octubre 2016 en Rarbg General ID única : 179961903382246290932227314591362313085 (0x876366E01E5F45159BBA0ADADDB9EB7D) Nombre completo : J: BitTorrent Hacker.2015.720p.WEB-DL.DD5.1.H264-FGT Hacker.2015.720p.WEB-DL.DD5.1.H264-FGT.mkv Formato : Matroska Formato de la versión : Version 4 / Version 2 Tamaño de archivo : 3,35 GiB Duración : 1 h 47 min Tasa de bits general : 4 451 kb/s Película : Hacker.2015.720p.WEB-DL.DD5.1.H264-FGT Fecha de codificación : UTC 2016-10-27 08:53:39 Aplicación de codifición : mkvmerge v9.4.0 (Knurl) 64bit Librería de codificación : libebml v1.3.4 + libmatroska v1.4.5 Portada : Yes Attachments : cover_land.jpg / small_cover.jpg / small_cover_land.jpg / cover.jpg Vídeo ID : 1 Formato : AVC Formato/Info : Advanced Video Codec Formato del perfil : Main@L3.1 Ajustes del formato, CABAC : No Ajustes del formato, ReFrames : 2 fotogramas ID códec : V_MPEG4/ISO/AVC Duración : 1 h 47 min Tasa de bits : 3 978 kb/s Ancho : 1 280 píxeles Alto : 530 píxeles Relación de aspecto : 2,40:1 Modo velocidad fotogramas : Constante Velocidad de fotogramas : 23,976 FPS Espacio de color : YUV Submuestreo croma : 4:2:0 Profundidad bits : 8 bits Tipo barrido : Progresivo Bits/(píxelfotograma) : 0.245 Tamaño de pista : 3,00 GiB (89%) Título : Hacker.2015.720p.WEB-DL.DD5.1.H264-FGT Idioma : Inglés Default : Sí Forced : No Rango de color : Limited Colores primarios : BT.709 Características transferencia : BT.709 Coeficientes matriz : BT.709 Audio ID : 2 Formato : AC-3 Formato/Info : Audio Coding 3 Ajustes del formato, Endianness : Big ID códec : A_AC3 Duración : 1 h 47 min Tipo de tasa de bits : Constante Tasa de bits : 384 kb/s Canal(es) : 6 canales Posiciones del canal : Front: L C R, Side: L R, LFE Velocidad de muestreo : 48,0 kHz Velocidad de fotogramas : 31,250 FPS (1536 spf) Profundidad bits : 16 bits Modo de compresión : Con pérdida Tamaño de pista : 296 MiB (9%) Título : Hacker.2015.720p.WEB-DL.DD5.1.H264-FGT Idioma : Inglés ServiceKind/String : Complete Main Default : Sí Forced : No Texto ID : 3 Formato : UTF-8 ID códec : S_TEXT/UTF8 ID códec/Info : UTF-8 Plain Text Idioma : Inglés Default : Sí Forced : No Menú 00:00:00.000 : en:1 00:04:48.079 : en:2 00:12:54.482 : en:3 00:20:16.090 : en:4 00:25:57.973 : en:5 00:33:15.327 : en:6 00:37:57.108 : en:7 00:45:42.865 : en:8 00:53:01.136 : en:9 00:59:23.393 : en:10 01:05:51.364 : en:11 01:12:16.749 : en:12 01:18:16.984 : en:13 01:25:21.533 : en:14 01:31:30.777 : en:15 01:38:19.977 : en:16 [image]http://i63.tinypic.com/286scn4.jpg[/image] [image]http://i66.tinypic.com/sbrivc.jpg[/image] [image]http://i67.tinypic.com/2zjdzd4.jpg[/image] [image]http://i68.tinypic.com/j9sowk.jpg[/image] [image]http://i63.tinypic.com/awoo4j.jpg[/image] [image]http://i68.tinypic.com/120nyvn.jpg[/image] [image]http://i63.tinypic.com/1zg7ib.jpg[/image] [image]http://i64.tinypic.com/zxw8k4.jpg[/image]

Mensaje escrito por cgarcia1097 el 04/04/2017 02:10:00 am - Puntaje: 4 
Comprando... [image]http://i67.tinypic.com/16h3hi9.jpg[/image]

Mensaje escrito por cgarcia1097 el 04/04/2017 01:18:51 am - Puntaje: 6 
The.Founder.2016.1080p.WEB-DL.DD5.1.H264-FGT [image]http://i64.tinypic.com/654lyh.jpg[/image] Video ID : 1 Format : AVC Format/Info : Advanced Video Codec Format profile : High@L4 Format settings, CABAC : Yes Format settings, ReFrames : 5 frames Codec ID : V_MPEG4/ISO/AVC Duration : 1h 55mn Bit rate : 4 478 Kbps Width : 1 912 pixels Height : 816 pixels Display aspect ratio : 2.35:1 Frame rate mode : Constant Frame rate : 23.976 (24000/1001) fps Color space : YUV Chroma subsampling : 4:2:0 Bit depth : 8 bits Scan type : Progressive Bits/(PixelFrame) : 0.120 Stream size : 3.61 GiB (90%) Title : The.Founder.2016.1080p.WEB-DL.DD5.1.H264-FGT Language : English Default : Yes Forced : No Color range : Limited Color primaries : BT.709 Transfer characteristics : BT.709 Matrix coefficients : BT.709 Audio ID : 2 Format : AC-3 Format/Info : Audio Coding 3 Mode extension : CM (complete main) Format settings, Endianness : Big Codec ID : A_AC3 Duration : 1h 55mn Bit rate mode : Constant Bit rate : 384 Kbps Channel(s) : 6 channels Channel positions : Front: L C R, Side: L R, LFE Sampling rate : 48.0 KHz Frame rate : 31.250 fps (1536 spf) Compression mode : Lossy Stream size : 317 MiB (8%) Title : The.Founder.2016.1080p.WEB-DL.DD5.1.H264-FGT Language : English Default : Yes Forced : No Text ID : 3 Format : UTF-8 Codec ID : S_TEXT/UTF8 Codec ID/Info : UTF-8 Plain Text Language : English Default : Yes Forced : No Menu 00:00:00.000 : en:1 00:04:21.000 : en:2 00:10:10.000 : en:3 00:16:16.000 : en:4 00:25:07.000 : en:5 00:31:55.000 : en:6 00:38:50.000 : en:7 00:45:42.000 : en:8 00:52:28.000 : en:9 01:00:32.000 : en:10 01:07:38.000 : en:11 01:12:05.000 : en:12 01:18:36.000 : en:13 01:24:37.000 : en:14 01:31:41.000 : en:15 01:37:27.000 : en:16 01:43:35.000 : en:17 01:47:10.000 : en:18 [image]http://imagecurl.com/images/05504877329588947420_thumb.png[/image] [image]http://imagecurl.com/images/48513064342099374547_thumb.png[/image] [image]http://imagecurl.com/images/79455288204335579166_thumb.png[/image] [image]http://imagecurl.com/images/26038305329033809199_thumb.png[/image] [image]http://imagecurl.com/images/68684122265353678665_thumb.png[/image] [image]http://imagecurl.com/images/29589301942984575777_thumb.png[/image]