Login

  

My Cousin Rachel (2017) DVDRip





Thread creado por gabriel87 el 12/08/2017 03:32:07 pm. Lecturas: 1,934. Mensajes: 11. Favoritos: 1





12/08/2017 03:32:07 pm 
       19                           







Título: My Cousin Rachel
Año: 2017
Duración: 106 min.
IMDb link: 4411596
IMDb rating: 6.4 (1,951 votos)
Productora: Fox Searchlight Pictures / Free Range Films / Helicopter Film Services
País: Estados Unidos
Música: Rael Jones
Fotografía: Mike Eley
Director: Roger Michell
Guion: Roger Michell (Novela: Daphne Du Maurier)
Género: Drama. Romance
Reparto: Rachel Weisz, Sam Claflin, Holliday Grainger, Iain Glen, Poppy Lee Friar, Vicki Pepperdine, Chris Gallarus



El joven huérfano Phillip Ambrose planea vengarse de una hermosa mujer que ha asesinado a su tutor. (FILMAFFINITY)


















My Cousin Rachel 2017 DVDRip XviD AC3-EVO (1.39 GB)
1919 19



13/08/2017 12:57:22 am 
       4                           
Agregado a Últimos Estrenos - Agosto (2). Saludos.


13/08/2017 03:02:18 pm 
       2                           
vegafox


Miembro desde: 11/08/2010

Threads abiertos: 24
Mensajes: 4153  
Subtítulos subidos: 22
Threads Favoritos: 0





Aquí si queda el adagio mexicano ´´A la prima se le arrima´´...



Salvo mejor a opinión...obvio,


15/08/2017 01:45:37 pm 
       5                           
OMORAGA


Miembro desde: 23/05/2013

Threads abiertos: 22
Mensajes: 1512  
Subtítulos subidos: 0
Threads Favoritos: 109





Esta cinta huele bien.

TaMa, tu sabes cuanto te quiero.




15/08/2017 01:56:17 pm 
       4                           
Me olvide poner que hay 2 releases más

My Cousin Rachel 2017 DVDRip XviD AC3-6CH-iFT (2.1 GB)
Complete name : My Cousin Rachel 2017 DVDRip.XviD.AC3-6CH-iFT.avi
Format : AVI
Format/Info : Audio Video Interleave
File size : 2.03 GiB
Duration : 1 h 46 min
Overall bit rate : 2 736 kb/s
Writing application : VirtualDubMod 1.5.10.2 (build 2540/release)
Writing library : VirtualDubMod build 2540/release

Video
ID : 0
Format : MPEG-4 Visual
Format profile : Advanced Simple@L5
Format settings, BVOP : 2
Format settings, QPel : No
Format settings, GMC : No warppoints
Format settings, Matrix : Default (H.263)
Muxing mode : Packed bitstream
Codec ID : XVID
Codec ID/Hint : XviD
Duration : 1 h 46 min
Bit rate : 2 171 kb/s
Width : 720 pixels
Height : 304 pixels
Display aspect ratio : 2.35:1
Frame rate : 23.976 (24000/1001) FPS
Color space : YUV
Chroma subsampling : 4:2:0
Bit depth : 8 bits
Scan type : Progressive
Compression mode : Lossy
Bits/(PixelFrame) : 0.414
Stream size : 1.61 GiB (79%)
Writing library : XviD 73

Audio
ID : 1
Format : AC-3
Format/Info : Audio Coding 3
Format settings, Endianness : Big
Codec ID : 2000
Duration : 1 h 46 min
Bit rate mode : Constant
Bit rate : 448 kb/s
Channel(s) : 6 channels
Channel positions : Front: L C R, Side: L R, LFE
Sampling rate : 48.0 kHz
Frame rate : 31.250 FPS (1536 spf)
Bit depth : 16 bits
Compression mode : Lossy
Stream size : 340 MiB (16%)
Alignment : Split accross interleaves
Service kind : Complete Main




My Cousin Rachel (2017) DVDRip x264-5 1-VVEXO (706 MB)
Complete name : My Cousin Rachel (2017) DVDRip-x264-5.1-VVEXO
Format : Matroska
Format version : Version 4 / Version 2
File size : 704 MiB
Duration : 1 h 46 min
Overall bit rate : 927 kb/s
Encoded date : UTC 2017-08-13 03:35:29
Writing application : mkvmerge v7.2.0 (On Every Street) 32bit built on Sep 13 2014 15:42:11
Writing library : libebml v1.3.0 + libmatroska v1.4.1

Video
ID : 1
Format : AVC
Format/Info : Advanced Video Codec
Format profile : High@L3
Format settings, CABAC : Yes
Format settings, ReFrames : 4 frames
Codec ID : V_MPEG4/ISO/AVC
Duration : 1 h 46 min
Bit rate : 830 kb/s
Width : 720 pixels
Height : 304 pixels
Display aspect ratio : 2.35:1
Frame rate mode : Constant
Frame rate : 23.976 (24000/1001) FPS
Color space : YUV
Chroma subsampling : 4:2:0
Bit depth : 8 bits
Scan type : Progressive
Bits/(PixelFrame) : 0.158
Stream size : 617 MiB (88%)
Writing library : x264 core 148 r2744 b97ae06
Encoding settings : cabac=1 / ref=3 / deblock=1:0:0 / analyse=0x3:0x113 / me=hex / subme=7 / psy=1 / psy_rd=1.00:0.00 / mixed_ref=1 / me_range=16 / chroma_me=1 / trellis=1 / 8x8dct=1 / cqm=0 / deadzone=21,11 / fast_pskip=1 / chroma_qp_offset=-2 / threads=9 / lookahead_threads=1 / sliced_threads=0 / nr=0 / decimate=1 / interlaced=0 / bluray_compat=0 / constrained_intra=0 / bframes=3 / b_pyramid=2 / b_adapt=1 / b_bias=0 / direct=1 / weightb=1 / open_gop=0 / weightp=2 / keyint=240 / keyint_min=23 / scenecut=40 / intra_refresh=0 / rc_lookahead=40 / rc=2pass / mbtree=1 / bitrate=830 / ratetol=1.0 / qcomp=0.60 / qpmin=0 / qpmax=69 / qpstep=4 / cplxblur=20.0 / qblur=0.5 / ip_ratio=1.40 / aq=1:1.00
Language : English
Default : Yes
Forced : No

Audio
ID : 2
Format : AC-3
Format/Info : Audio Coding 3
Format settings, Endianness : Big
Codec ID : A_AC3
Duration : 1 h 46 min
Bit rate mode : Constant
Bit rate : 96.0 kb/s
Channel(s) : 6 channels
Channel positions : Front: L C R, Side: L R, LFE
Sampling rate : 44.1 kHz
Frame rate : 28.711 FPS (1536 spf)
Bit depth : 16 bits
Compression mode : Lossy
Stream size : 72.9 MiB (10%)
Language : English
Service kind : Complete Main
Default : Yes
Forced : No


15/08/2017 11:47:11 pm 
       7                           
Subtítulos DVDRip

2 sincronías diferentes en el mismo .rar (EVO / iFT)


16/08/2017 12:18:24 am 
       4                           
vegafox


Miembro desde: 11/08/2010

Threads abiertos: 24
Mensajes: 4153  
Subtítulos subidos: 22
Threads Favoritos: 0





TaMaBin escribió:
www.subdivx.com/X6XNTEwMjM0X-my-cousin-rachel-2017.html Subtítulos DVDRip2 sincronías diferentes en el mismo .rar EVO / iFT


Excelente ahora si, a darle gusto a la pupila!

Gracias TaMaBin!


16/08/2017 10:09:04 pm 
       3                           
OMORAGA


Miembro desde: 23/05/2013

Threads abiertos: 22
Mensajes: 1512  
Subtítulos subidos: 0
Threads Favoritos: 109





TaMaBin escribió:
www.subdivx.com/X6XNTEwMjM0X-my-cousin-rachel-2017.html Subtítulos DVDRip2 sincronías diferentes en el mismo .rar EVO / iFT


ME MATASTE TaMa.

Que te puedo decir.

Si tienes algún enemigo dimelo, yo lo mando a matar, para devolverte todos los favores que nos has dados.




18/08/2017 02:47:59 pm 
       2                           
Salio el blu-ray

My.Cousin.Rachel.2017.720p.BluRay.x264-GECKOS (5.49 GB)
My.Cousin.Rachel.2017.BDRip.x264-GECKOS (563.79 MB)


18/08/2017 02:53:46 pm 
       3                           
vegafox


Miembro desde: 11/08/2010

Threads abiertos: 24
Mensajes: 4153  
Subtítulos subidos: 22
Threads Favoritos: 0





OMORAGA escribió:
TaMaBin escribió: www.subdivx.com/X6XNTEwMjM0X-my-cousin-rachel-2017.html Subtítulos DVDRip2 sincronías diferentes en el mismo .rar EVO / iFT ME MATASTE TaMa.Que te puedo decir.Si tienes algún enemigo dimelo, yo lo mando a matar, para devolverte todos los favores que nos has dados.





18/08/2017 05:55:22 pm 
       3                           
Salió My.Cousin.Rachel.2017.1080p.BluRay.x264-GECKOS 7.67gb






postimgorg

1