Login

  

Guardians of the Galaxy Vol. 2 (2017) BluRay





Thread creado por cgarcia1097 el 08/08/2017 06:10:40 am. Lecturas: 3,116. Mensajes: 12. Favoritos: 0





08/08/2017 06:10:40 am 
       12                           
Guardians.of.the.Galaxy.Vol.2.2017.1080p.BluRay.x264-SPARKS 9.87GB



Información
IMDB: tt3896198
Título: Guardians.of.the.Galaxy.Vol.2.2017.
Género: Action , Adventure , Sci-Fi.
Duración: 02:15 hrs at 23.976 fps
Director: James Gunn.
Guión: James Gunn, Dan Abnett (based on the Marvel comics by).
Reparto: Chris Pratt, Zoe Saldana, Dave Bautista...

Sinopsis
Continúa con las aventuras del equipo al tiempo que atraviesan los confines del cosmos. Los Guardianes deben luchar para mantener unida a su nueva familia, mientras tratan de desentrañar los misterios del verdadero padre de Peter Quill. Viejos enemigos se convertirán en aliados e icónicos personajes de los cómics aparecerán para ayudar a nuestros héroes para que el universo cinematográfico de Marvel continúe expandiéndose. (Abandomoviez)

[-] Hide MediaInfo

Video
ID : 1
Format : AVC
Format/Info : Advanced Video Codec
Format profile : High@L4.1
Format settings, CABAC : Yes
Format settings, ReFrames : 5 frames
Codec ID : V_MPEG4/ISO/AVC
Duration : 2h 15mn
Bit rate : 8 865 Kbps
Width : 1 920 pixels
Height : 808 pixels
Display aspect ratio : 2.40:1
Frame rate mode : Constant
Frame rate : 23.976 fps
Color space : YUV
Chroma subsampling : 4:2:0
Bit depth : 8 bits
Scan type : Progressive
Bits/(PixelFrame) : 0.238
Stream size : 8.41 GiB (85%)
Writing library : x264 core 150 r2833 df79067
Encoding settings : cabac=1 / ref=5 / deblock=1:0:0 / analyse=0x3:0x133 / me=umh / subme=7 / psy=1 / psy_rd=1.00:0.00 / mixed_ref=1 / me_range=16 / chroma_me=1 / trellis=1 / 8x8dct=1 / cqm=0 / deadzone=21,11 / fast_pskip=0 / chroma_qp_offset=-2 / threads=25 / lookahead_threads=4 / sliced_threads=0 / nr=0 / decimate=1 / interlaced=0 / bluray_compat=0 / constrained_intra=0 / bframes=3 / b_pyramid=2 / b_adapt=1 / b_bias=0 / direct=1 / weightb=1 / open_gop=0 / weightp=2 / keyint=250 / keyint_min=23 / scenecut=40 / intra_refresh=0 / rc_lookahead=40 / rc=2pass / mbtree=1 / bitrate=8865 / ratetol=1.0 / qcomp=0.60 / qpmin=0 / qpmax=69 / qpstep=4 / cplxblur=20.0 / qblur=0.5 / ip_ratio=1.40 / aq=1:1.00
Language : English
Default : Yes
Forced : No

Audio
ID : 2
Format : DTS
Format/Info : Digital Theater Systems
Mode : 16
Format settings, Endianness : Big
Codec ID : A_DTS
Duration : 2h 15mn
Bit rate mode : Constant
Bit rate : 1 509 Kbps
Channel(s) : 6 channels
Channel positions : Front: L C R, Side: L R, LFE
Sampling rate : 48.0 KHz
Frame rate : 93.750 fps (512 spf)
Bit depth : 24 bits
Compression mode : Lossy
Stream size : 1.43 GiB (15%)
Language : English
Default : Yes
Forced : No

Menu
00:00:00.000 : en:00:00:00.000
00:09:56.179 : en:00:09:56.179
00:15:10.118 : en:00:15:10.118
00:22:14.083 : en:00:22:14.083
00:32:33.702 : en:00:32:33.702
00:36:52.127 : en:00:36:52.127
00:42:29.172 : en:00:42:29.172
00:48:03.464 : en:00:48:03.464
00:53:18.904 : en:00:53:18.904
00:58:45.939 : en:00:58:45.939
01:05:52.240 : en:01:05:52.240
01:11:12.435 : en:01:11:12.435
01:18:43.594 : en:01:18:43.594
01:23:55.322 : en:01:23:55.322
01:30:24.753 : en:01:30:24.753
01:39:36.179 : en:01:39:36.179
01:47:06.211 : en:01:47:06.211
01:54:21.605 : en:01:54:21.605
01:58:53.710 : en:01:58:53.710
02:07:13.459 : en:02:07:13.459



Trailer:


RELEASES:

Guardians.of.the.Galaxy.Vol.2.2017.720p.BluRay.H264.AAC-RARBG 1.67 GB
Guardians.of.the.Galaxy.Vol.2.2017.720p.BRRip.XviD.AC3-RARBG 4.24 GB
Guardians.of.the.Galaxy.Vol.2.2017.BRRip.XviD.AC3-RARBG 1.98 GB
Guardians.of.the.Galaxy.Vol.2.2017.BRRip.XviD.MP3-RARBG 1.74 GB
Guardians.of.the.Galaxy.Vol.2.2017.BDRip.x264-SPARKS 986.66 MB
Guardians.of.the.Galaxy.Vol.2.2017.720p.BluRay.x264-SPARKS 6.59 GB
Guardians.of.the.Galaxy.Vol.2.2017.1080p.BluRay.x264-SPARKS 9.87 GB
Guardians of the Galaxy Vol 2 (2017) WEB-DL XviD MAXSPEED 1.64 GB
Guardians.of.the.Galaxy.Vol.2.2017.WEB-DL.x264-FGT 1.17 GB
Guardians.of.the.Galaxy.Vol.2.2017.720p.WEB-DL.XviD.AC3-FGT 3.97 GB
Guardians.of.the.Galaxy.Vol.2.2017.WEB-DL.XviD.AC3-FGT 1.89 GB
1212 12



08/08/2017 06:34:04 pm 
       2                           
Agregado a Últimos Estrenos - Agosto (2). Saludos.


08/08/2017 07:22:57 pm 
       0                           
OMORAGA


Miembro desde: 23/05/2013

Threads abiertos: 22
Mensajes: 1560  
Subtítulos subidos: 0
Threads Favoritos: 113





Esperada segunda parte.
No he revisado si hay subtítulos.
Ojala que si.


08/08/2017 08:33:31 pm 
       0                           

Por fin!!!!!


08/08/2017 09:33:53 pm 
       0                           
vi la primera, ni idea como venian con estos personajes, pero me gusto, asi que la segunda sera comprada y visionada cuando culmine GoT.


08/08/2017 11:08:42 pm 
       1                           
drakko


Miembro desde: 31/05/2012

Threads abiertos: 1
Mensajes: 77  
Subtítulos subidos: 0
Threads Favoritos: 0





Vamos a ver otra ves bailar a Baby Groot





09/08/2017 07:39:30 am 
       0                           
Bien ahí


09/08/2017 11:43:13 am 
      -1                           
gubi


Miembro desde: 30/07/2016

Threads abiertos: 0
Mensajes: 191  
Subtítulos subidos: 1
Threads Favoritos: 0



Muy bueno, gracias.

¿Alguna idea de para cuándo sale el audio latino?


09/08/2017 11:47:22 am 
       2                           
greavious


Miembro desde: 25/03/2006

Threads abiertos: 158
Mensajes: 16080  
Subtítulos subidos: 0
Threads Favoritos: 47





la peli es bastante regularcita che...la vi anoche y bastante pobre


09/08/2017 11:49:36 am 
       0                           
gubi


Miembro desde: 30/07/2016

Threads abiertos: 0
Mensajes: 191  
Subtítulos subidos: 1
Threads Favoritos: 0



No espero mucho de la película, pero con que pueda pasar un buen rato con mis hijos y mi sobrino, estará muy bien.


09/08/2017 01:43:43 pm 
       1                           
gubi escribió:
Muy bueno, gracias.¿Alguna idea de para cuándo sale el audio latino?
En tiemposmatufos está desde ayer.


09/08/2017 07:05:48 pm 
       1                           
mym-pc escribió:
gubi escribió: Muy bueno, gracias.¿Alguna idea de para cuándo sale el audio latino?En tiemposmatufos está desde ayer.


aca esta el link, para los que quieren solo el audio latino:

Guardianes Vol2 latino

estas son las caracteristicas y las versiones que le van bien:

Audio
Format : AC-3
Format/Info : Audio Coding 3
Format settings, Endianness : Big
Duration : 2 h 15 min
Bit rate mode : Constant
Bit rate : 640 kb/s
Channel(s) : 6 channels
Channel positions : Front: L C R, Side: L R, LFE
Sampling rate : 48.0 kHz
Frame rate : 31.250 FPS (1536 SPF)
Bit depth : 16 bits
Compression mode : Lossy
Stream size : 622 MiB (100%)

versiones:

SIN DELAY:
Guardians.of.the.Galaxy.Vol.2.2017.720p.BluRay.x264-SPARKS
Guardians.of.the.Galaxy.Vol.2.2017.1080p.BluRay.x264-SPARKS
Guardians.of.the.Galaxy.Vol.2.2017.BDRip.x264-SPARKS
Guardians.of.the.Galaxy.Vol.2.2017.BRRip.XviD.MP3-RARBG
Guardians.of.the.Galaxy.Vol.2.2017.720p.BRRip.x264-MkvCage
Guardians.of.the.Galaxy.Vol.2.2017.720p.BluRay.x264-[YTS.PE]
Guardians.of.the.Galaxy.Vol.2.2017.720p.BluRay.x264-YTS.AG
Guardians.of.the.Galaxy.Vol.2.2017.720p.BrRip.2CH.x265.HEVC-PSA
Guardians.of.the.Galaxy.Vol.2.2017.720p.BluRay.x264-FOXM
Guardians.of.the.Galaxy.Vol.2.BRRip.XviD.AC3-EVO

mil gracias a BIYICK de Tiempos Mafufos






guardians

1